<?xml version="1.0" standalone="no"?>
<!DOCTYPE svg PUBLIC "-//W3C//DTD SVG 1.1//EN" "http://www.w3.org/Graphics/SVG/1.1/DTD/svg11.dtd" >
<svg>
<metadata>
Created by FontForge 20110222 at Mon Feb 11 12:27:10 2013
 By www-data
(c) 2000 Borna Rayaneh
</metadata>
<defs>
<font id="BNazanin" horiz-adv-x="0" >
  <font-face 
    font-family="B Nazanin"
    font-weight="400"
    font-stretch="normal"
    units-per-em="2048"
    panose-1="0 0 4 0 0 0 0 0 0 0"
    ascent="1638"
    descent="-410"
    bbox="-211 -1045 1990 1918"
    underline-thickness="60"
    underline-position="-650"
    unicode-range="U+0020-FEFC"
  />
<missing-glyph horiz-adv-x="1024" 
d="M128 0v1343h768v-1343h-768zM256 128h512v1087h-512v-1087z" />
    <glyph glyph-name="uFC60" unicode="&#x651;&#x64e;" arabic-form="isolated" 
d="M457 1368q0 -51 -29 -87q-32 -38 -82 -38q-52 0 -81 53q-47 -56 -109 -56q-37 0 -64 34t-27 72q0 28 16 62q19 41 43 41q12 0 12 -18q0 -9 -2 -25.5t-2 -25.5q0 -45 42 -45t58 33q5 11 17 65q4 19 20 19t18 -21q11 -101 59 -101q46 0 46 48q0 20 -8 47l51 42
q22 -36 22 -99zM431 1697l-302 -124v79l302 119v-74z" />
    <glyph glyph-name="uFC61" unicode="&#x651;&#x64f;" arabic-form="isolated" 
d="M490 1345q0 -51 -29 -87q-32 -38 -82 -38q-51 0 -81 53q-46 -55 -109 -55q-41 0 -69 41q-22 33 -22 64q0 28 16 62q19 41 43 41q12 0 12 -18q0 -8 -2 -25t-2 -25q0 -45 42 -45t58 33q4 8 17 65q4 18 20 18t18 -20q11 -101 59 -101q46 0 46 48q0 20 -8 47l51 41
q22 -34 22 -99zM483 1739q0 -42 -64 -113q9 -7 40 -15l-34 -61q-47 9 -77 31q-113 -64 -190 -64q-30 0 -58 67q86 2 116 6q60 8 88 32q-32 57 -32 77q0 44 61 89q52 39 78 39q33 0 54 -28q18 -26 18 -60zM412 1729q0 30 -30 30q-15 0 -29.5 -13t-14.5 -28q0 -34 35 -61
q39 24 39 72z" />
    <glyph glyph-name="uE818" unicode="&#x651;&#x64b;" 
d="M398 1621l-302 -124v79l302 120v-75zM429 1326q0 -51 -29 -87q-32 -38 -82 -38q-51 0 -81 53q-46 -55 -109 -55q-41 0 -69 41q-22 33 -22 64q0 28 16 62q19 41 43 41q12 0 12 -18q0 -8 -2 -25t-2 -25q0 -45 42 -45t58 33q4 8 17 65q4 18 20 18t18 -20q11 -101 59 -101
q46 0 46 48q0 20 -8 47l51 41q22 -34 22 -99zM398 1806l-302 -124v79l302 119v-74z" />
    <glyph glyph-name="uFC5E" unicode="&#x651;&#x64c;" arabic-form="isolated" 
d="M438 1399q0 -51 -29 -87q-32 -38 -82 -38q-52 0 -81 53q-47 -56 -109 -56q-37 0 -64 34t-27 72q0 28 16 62q19 41 43 41q12 0 12 -18q0 -9 -2 -25.5t-2 -25.5q0 -45 42 -45t58 33q5 11 17 65q4 19 20 19t18 -21q11 -101 59 -101q46 0 46 48q0 20 -8 47l51 42
q22 -36 22 -99zM449 1831q0 -42 -65 -114q10 -6 41 -15l-35 -60q-45 8 -77 31q-108 -64 -190 -64q-28 0 -58 66q41 0 55 5q22 25 22 50q0 26 -27 26q-22 0 -46 -26l-10 47q36 41 74 41q13 0 26 -6q35 -16 35 -61q0 -35 -21 -67q68 6 97 29q-33 56 -33 77q0 45 61 90
q52 38 79 38q72 0 72 -87zM378 1821q0 29 -31 29q-42 0 -42 -41q0 -33 34 -61q39 24 39 73z" />
    <glyph glyph-name="uFC62" unicode="&#x651;&#x650;" arabic-form="isolated" 
d="M499 1573q0 -51 -29 -87q-32 -38 -82 -38q-52 0 -81 53q-47 -56 -109 -56q-37 0 -64 34t-27 72q0 28 16 62q19 41 43 41q12 0 12 -18q0 -9 -2 -25.5t-2 -25.5q0 -45 42 -45t58 33q5 11 17 65q4 19 20 19t18 -21q11 -101 59 -101q46 0 46 48q0 20 -8 47l51 42
q22 -36 22 -99zM451 1312l-302 -123v78l302 120v-75z" />
    <glyph glyph-name="uFC5F" unicode="&#x651;&#x64d;" arabic-form="isolated" 
d="M381 1761q0 -51 -29 -87q-32 -38 -82 -38q-52 0 -81 53q-47 -56 -109 -56q-37 0 -64 34t-27 72q0 28 16 62q19 41 43 41q12 0 12 -18q0 -9 -2 -25.5t-2 -25.5q0 -45 42 -45t58 33q5 11 17 65q4 19 20 19t18 -21q11 -101 59 -101q46 0 46 48q0 20 -8 47l51 42
q22 -36 22 -99zM333 1500l-302 -123v78l302 120v-75zM333 1340l-302 -123v78l302 120v-75z" />
    <glyph glyph-name="uFEF5" unicode="&#xfedf;&#xfe82;" horiz-adv-x="988" arabic-form="isolated" 
d="M976 1011q4 -10 11 -32q-4 -2 -22 -2h-37q0 -160 -35 -325q-45 -212 -132 -331q44 -85 44 -161q0 -45 -20 -97q-24 -63 -61 -72q-171 -40 -366 -26l42 141q187 87 270 201q-189 258 -429 498l-25 -42q-133 144 -133 178q0 35 24 132q6 25 13 25t40 -30q372 -341 562 -686
q72 122 88 331q14 181 -2 384l108 100q35 -116 60 -186zM736 129q1 9 1 18q0 54 -36 105q-64 -77 -157 -148q24 -2 46 -2q91 0 146 27zM366 1310q-84 -69 -207 -69q-18 0 -54 5t-54 5q-11 0 -34 -28.5t-32 -28.5q-17 0 -17 24q0 17 22 65q25 54 43 54q25 0 74 -8.5t74 -8.5
q112 0 164 15q27 8 38 8q9 0 9 -4q0 -8 -26 -29z" />
    <glyph glyph-name="uFEF6" unicode="&#xfee0;&#xfe82;" horiz-adv-x="1170" arabic-form="final" 
d="M1196 1h-76q-239 0 -239 339q0 37 3 115q-147 -365 -371 -522q-141 -33 -337 -37q-42 -1 -42 6q0 8 120 66q76 35 151 71q134 67 253 191q-50 192 -172 342q-78 96 -242 229l-15 -51q-52 44 -88 80q-62 62 -63 87q-2 34 12 129q3 22 9 22t30 -17q252 -180 375 -333
q151 -188 204 -438q71 91 117 207q50 127 47 232q-5 178 -25 386l108 93q16 -94 23 -876q1 -173 153 -173h65v-148zM366 1310q-84 -69 -207 -69q-18 0 -54 5t-54 5q-11 0 -34 -28.5t-32 -28.5q-17 0 -17 24q0 17 22 65q25 54 43 54q25 0 74 -8.5t74 -8.5q112 0 164 15
q27 8 38 8q9 0 9 -4q0 -8 -26 -29z" />
    <glyph glyph-name="uFEF7" unicode="&#xfedf;&#xfe84;" horiz-adv-x="988" arabic-form="isolated" 
d="M976 1011q4 -10 11 -32q-4 -2 -22 -2h-37q0 -160 -35 -325q-45 -212 -132 -331q44 -85 44 -161q0 -45 -20 -97q-24 -63 -61 -72q-171 -40 -366 -26l42 141q187 87 270 201q-189 258 -429 498l-25 -42q-133 144 -133 178q0 35 24 132q6 25 13 25t40 -30q372 -341 562 -686
q72 122 88 331q14 181 -2 384l108 100q35 -116 60 -186zM736 129q1 9 1 18q0 54 -36 105q-64 -77 -157 -148q24 -2 46 -2q91 0 146 27zM328 1359l-16 -62q-144 -29 -287 -81v47q24 15 83 48q-81 55 -81 93t53 100q59 69 111 69q69 0 99 -63q9 -19 2 -28t-27 -1
q-31 12 -83 12q-22 0 -48 -13q-31 -15 -31 -34q0 -24 33 -51q41 -33 101 -33q33 0 65 9q21 6 25 4q5 -2 1 -16z" />
    <glyph glyph-name="uFEF8" unicode="&#xfee0;&#xfe84;" horiz-adv-x="1170" arabic-form="final" 
d="M1196 1h-76q-239 0 -239 339q0 37 3 115q-147 -365 -371 -522q-141 -33 -337 -37q-42 -1 -42 6q0 8 120 66q76 35 151 71q134 67 253 191q-50 192 -172 342q-78 96 -242 229l-15 -51q-52 44 -88 80q-62 62 -63 87q-2 34 12 129q3 22 9 22t30 -17q252 -180 375 -333
q151 -188 204 -438q71 91 117 207q50 127 47 232q-5 178 -25 386l108 93q16 -94 23 -876q1 -173 153 -173h65v-148zM328 1359l-16 -62q-144 -29 -287 -81v47q24 15 83 48q-81 55 -81 93t53 100q59 69 111 69q69 0 99 -63q9 -19 2 -28t-27 -1q-31 12 -83 12q-22 0 -48 -13
q-31 -15 -31 -34q0 -24 33 -51q41 -33 101 -33q33 0 65 9q21 6 25 4q5 -2 1 -16z" />
    <glyph glyph-name="uFEF9" unicode="&#xfedf;&#xfe88;" horiz-adv-x="988" arabic-form="isolated" 
d="M976 1011q4 -10 11 -32q-4 -2 -22 -2h-37q0 -160 -35 -325q-45 -212 -132 -331q44 -85 44 -161q0 -45 -20 -97q-24 -63 -61 -72q-171 -40 -366 -26l42 141q187 87 270 201q-189 258 -429 498l-25 -42q-133 144 -133 178q0 35 24 132q6 25 13 25t40 -30q372 -341 562 -686
q72 122 88 331q14 181 -2 384l108 100q35 -116 60 -186zM736 129q1 9 1 18q0 54 -36 105q-64 -77 -157 -148q24 -2 46 -2q91 0 146 27zM486 -376l-16 -63q-140 -27 -287 -80v47q25 15 84 47q-81 55 -81 94q0 37 53 100q58 69 111 69q67 0 98 -64q9 -19 3 -28q-7 -8 -27 -1
q-36 13 -83 13q-22 0 -48 -13q-31 -15 -31 -34q0 -38 51 -63q42 -22 83 -22q32 0 65 9l11 3q6 1 10 1t5 -1q2 -3 -1 -14z" />
    <glyph glyph-name="uFEFA" unicode="&#xfee0;&#xfe88;" horiz-adv-x="1170" arabic-form="final" 
d="M1196 1h-76q-239 0 -239 339q0 37 3 115q-147 -365 -371 -522q-141 -33 -337 -37q-42 -1 -42 6q0 8 120 66q76 35 151 71q134 67 253 191q-50 192 -172 342q-78 96 -242 229l-15 -51q-52 44 -88 80q-62 62 -63 87q-2 34 12 129q3 22 9 22t30 -17q252 -180 375 -333
q151 -188 204 -438q71 91 117 207q50 127 47 232q-5 178 -25 386l108 93q16 -94 23 -876q1 -173 153 -173h65v-148zM469 -403l-16 -62q-151 -31 -287 -80v46q39 25 83 48q-81 55 -81 93q0 37 53 100q58 69 111 69q68 0 99 -63q9 -19 2 -28q-7 -8 -27 -1q-33 12 -83 12
q-23 0 -48 -12q-31 -14 -31 -34q0 -38 51 -63q42 -22 83 -22q33 0 65 9q21 6 25 4q5 -2 1 -16z" />
    <glyph glyph-name="uFEFB" unicode="&#xfedf;&#xfe8e;" horiz-adv-x="988" arabic-form="isolated" 
d="M976 1011q4 -10 11 -32q-4 -2 -22 -2h-37q0 -160 -35 -325q-45 -212 -132 -331q44 -85 44 -161q0 -45 -20 -97q-24 -63 -61 -72q-171 -40 -366 -26l42 141q187 87 270 201q-189 258 -429 498l-25 -42q-133 144 -133 178q0 35 24 132q6 25 13 25t40 -30q372 -341 562 -686
q72 122 88 331q14 181 -2 384l108 100q35 -116 60 -186zM736 129q1 9 1 18q0 54 -36 105q-64 -77 -157 -148q24 -2 46 -2q91 0 146 27z" />
    <glyph glyph-name="uFEFC" unicode="&#xfee0;&#xfe8e;" horiz-adv-x="1170" arabic-form="final" 
d="M1196 1h-76q-239 0 -239 339q0 37 3 115q-147 -365 -371 -522q-141 -33 -337 -37q-42 -1 -42 6q0 8 120 66q76 35 151 71q134 67 253 191q-50 192 -172 342q-78 96 -242 229l-15 -51q-52 44 -88 80q-62 62 -63 87q-2 34 12 129q3 22 9 22t30 -17q252 -180 375 -333
q151 -188 204 -438q71 91 117 207q50 127 47 232q-5 178 -25 386l108 93q16 -94 23 -876q1 -173 153 -173h65v-148z" />
    <glyph glyph-name="uFDF2" unicode="&#xfedf;&#xfee0;&#xfeea;" horiz-adv-x="1419" arabic-form="isolated" 
d="M979 1214q0 -93 -42 -93q2 18 2 35q0 68 -27 115q20 43 53 43q14 -46 14 -100zM1112 1026q0 -40 -25 -69.5t-64 -29.5q-42 0 -65 42q-39 -75 -90 -75q-30 0 -50 24t-20 55q0 23 13 50q15 33 35 33q9 0 9 -13q0 -6 -2 -18.5t-2 -18.5q0 -32 33 -32q34 0 47 30q1 4 14 57
q5 20 20 20q9 0 11 -13q10 -72 47 -72t37 39q0 16 -6 37l40 33q18 -30 18 -79zM1415 285q0 -284 -199 -284q-196 0 -251 184q-56 -184 -211 -184h-17q-182 0 -216 213q-82 -98 -96 -98h-43q-65 0 -135 23q-92 30 -92 83q0 114 63 194q45 57 274 148l1 88l87 97q8 -28 8 -111
v-102q0 -237 38 -317q33 -70 117 -70h13q72 0 115.5 47.5t43.5 120.5v205q0 121 -11 257l109 91v-465q0 -104 45 -174q52 -82 151 -82q111 0 111 115q0 137 -78 553l102 99q71 -383 71 -631zM513 262l-16 203q-70 -21 -146 -55q-115 -52 -115 -86t86 -55q62 -15 113 -15
q42 0 78 8z" />
    <glyph glyph-name="u0652_u064E.liga" unicode="&#x652;&#x64e;" horiz-adv-x="1" 
d="M259 929q0 -24 -15 -43q-9 -11 -13 -12q-3 2 -3 15q0 67 -37 325l50 30q6 4 9 4q2 -1 3 -7q6 -75 6 -312z" />
    <glyph glyph-name="u0652_u064B.liga" unicode="&#x652;&#x64b;" horiz-adv-x="1" 
d="M563 895l-99 -99l-100 100l99 98zM343 895l-98 -99l-100 100l99 98z" />
    <glyph glyph-name="u0652_u064D.liga" unicode="&#x652;&#x64d;" horiz-adv-x="1" 
d="M827 -740l-99 -99l-100 100l99 98zM607 -740l-98 -99l-100 100l99 98z" />
    <glyph glyph-name="u0622" unicode="&#x622;" horiz-adv-x="506" arabic-form="isolated" 
d="M432 159q0 -76 -33 -143q-19 -39 -26 -39q-8 0 -8 49q0 222 -78 1084l106 99q14 13 19 14q5 0 6 -22q14 -243 14 -1042zM515 1371q-83 -68 -206 -68q-18 0 -54 4.5t-54 4.5q-12 0 -34.5 -28t-31.5 -28q-17 0 -17 24q0 16 22 65q24 54 42 54q25 0 74.5 -8.5t74.5 -8.5
q110 0 164 15q29 8 38 8q8 0 8 -5q0 -8 -26 -29z" />
    <glyph glyph-name="Hcircumflex" unicode="&#x622;" horiz-adv-x="605" arabic-form="final" 
d="M631 1h-88q-143 0 -198 117q-39 82 -38 245l1 244q1 177 -30 498l80 84q21 22 25 -3q27 -172 27 -505v-373q0 -159 153 -159h68v-148zM515 1363q-85 -69 -206 -69q-18 0 -54 5t-54 5q-12 0 -35 -28.5t-31 -28.5q-17 0 -17 24q0 16 22 65q24 54 42 54q25 0 74.5 -8.5
t74.5 -8.5q110 0 164 15q29 8 38 8q8 0 8 -4q0 -8 -26 -29z" />
    <glyph glyph-name="u0623" unicode="&#x623;" horiz-adv-x="427" arabic-form="isolated" 
d="M361 159q0 -78 -32 -143q-19 -39 -27 -39t-8 49q0 222 -77 1084l105 99q15 14 20 14t6 -22q13 -226 13 -1042zM433 1386l-15 -63q-140 -27 -288 -80v47q25 15 84 47q-81 55 -81 94q0 37 53 100q58 69 111 69q68 0 99 -64q9 -19 2 -28q-7 -8 -27 -1q-33 12 -83 12
q-23 0 -48 -12q-31 -14 -31 -34q0 -38 51 -63q42 -22 83 -22q29 0 65 9q4 1 13 3q11 3 13 0t-1 -14z" />
    <glyph glyph-name="uFE84" unicode="&#x623;" horiz-adv-x="542" arabic-form="final" 
d="M569 1h-87q-143 0 -198 117q-39 82 -38 245l1 244q1 177 -30 498l79 84q22 23 26 -3q27 -173 27 -505v-373q0 -159 152 -159h68v-148zM442 1386l-16 -63q-140 -27 -287 -80v47q25 15 84 47q-81 55 -81 94q0 37 53 100q58 69 111 69q67 0 98 -64q9 -19 3 -28q-7 -8 -27 -1
q-33 12 -83 12q-23 0 -48 -12q-31 -14 -31 -34q0 -38 51 -63q42 -22 83 -22q32 0 65 9l11 3q6 1 10 2q4 -1 5 -2q2 -3 -1 -14z" />
    <glyph glyph-name="u0624" unicode="&#x624;" horiz-adv-x="659" arabic-form="isolated" 
d="M658 52q0 -286 -197 -490q-62 -64 -79 -64q-109 0 -249 22q-49 8 -49 15q0 8 52 23q155 45 289 160q56 48 102 113q58 81 58 136v42l-167 -6q-177 -6 -177 147q0 95 55 204q63 124 144 124q120 0 178 -165q40 -114 40 -261zM566 158q0 62 -42 117q-45 60 -105 60
q-40 0 -69.5 -30t-29.5 -70q0 -88 126 -88q47 0 120 11zM532 741l-16 -63q-143 -28 -287 -80v47q24 15 84 47q-81 53 -81 94q0 37 53 100q58 69 111 69q68 0 98 -64q9 -19 2 -28q-6 -9 -27 -1q-35 13 -82 13q-22 0 -49 -13q-31 -15 -31 -34q0 -25 33 -52q41 -33 102 -33
q29 0 64 9q18 5 23 5q3 -1 4 -2q2 -3 -1 -14z" />
    <glyph glyph-name="uFE86" unicode="&#x624;" horiz-adv-x="768" arabic-form="final" 
d="M795 1h-139q-18 -261 -201 -445q-58 -58 -73 -58q-105 0 -249 22q-47 7 -47 15t50 23q158 46 289 160q56 49 102 113q58 81 58 136v34h-160q-184 0 -184 149q0 95 55 204q63 124 144 124q99 0 159 -122q44 -89 55 -207h141v-148zM566 151q0 58 -41 117q-46 67 -106 67
q-39 0 -70 -31.5t-31 -70.5q0 -87 149 -87q39 0 99 5zM532 741l-16 -63q-143 -28 -287 -80v47q24 15 84 47q-81 53 -81 94q0 37 53 100q58 69 111 69q68 0 98 -64q9 -19 2 -28q-6 -9 -27 -1q-35 13 -82 13q-22 0 -49 -13q-31 -15 -31 -34q0 -25 33 -52q41 -33 102 -33
q29 0 64 9q18 5 23 5q3 -1 4 -2q2 -3 -1 -14z" />
    <glyph glyph-name="u0625" unicode="&#x625;" horiz-adv-x="427" arabic-form="isolated" 
d="M352 159q0 -80 -32 -143q-20 -39 -27 -39q-8 0 -8 49q0 222 -77 1084l106 99q14 13 19 14q5 0 6 -22q13 -226 13 -1042zM469 -341l-16 -62q-144 -29 -287 -81v47q24 15 83 48q-81 55 -81 93t53 100q59 69 111 69q68 0 99 -63q9 -19 2 -28q-7 -8 -27 -1q-33 12 -83 12
q-22 0 -48 -13q-31 -15 -31 -34q0 -24 33 -51q41 -33 101 -33q33 0 65 9q21 6 25 4q4 -3 1 -16z" />
    <glyph glyph-name="uFE88" unicode="&#x625;" horiz-adv-x="533" arabic-form="final" 
d="M560 1h-87q-143 0 -198 117q-39 82 -38 245l1 244q1 177 -30 498l79 84q22 23 26 -3q27 -167 27 -505v-373q0 -159 152 -159h68v-148zM486 -314l-16 -63q-150 -31 -287 -80v47q44 27 84 47q-81 55 -81 93t53 101q58 69 111 69q66 0 98 -64q9 -19 3 -28q-7 -8 -27 -1
q-33 12 -83 12q-23 0 -48 -12q-31 -14 -31 -34q0 -38 51 -63q42 -22 83 -22q32 0 65 9l11 3q6 1 10 1t5 -1q2 -3 -1 -14z" />
    <glyph glyph-name="u0626" unicode="&#x626;" horiz-adv-x="1326" arabic-form="isolated" 
d="M1319 469q8 -36 3 -41q-4 -5 -32 11q-59 33 -150 33q-126 0 -234 -107q-89 -89 -89 -141q0 -62 178 -94q195 -36 228 -94q7 -12 7 -39q0 -105 -67 -212q-44 -71 -192 -130q-183 -73 -419 -73q-166 0 -276 85q-121 94 -121 255q0 179 117 333q18 23 35 28q16 4 16 -12
q0 -12 -11 -32q-75 -138 -75 -257q0 -87 65 -157q89 -95 264 -95q156 0 329 39q250 56 250 157q0 38 -245 85q-91 18 -124 37q-47 28 -47 95q0 125 130 293q140 181 277 181q149 0 183 -148zM486 514l-16 -63q-140 -27 -287 -80v47q44 27 84 47q-81 55 -81 93t53 101
q58 69 111 69q66 0 98 -64q9 -19 3 -28q-7 -8 -27 -1q-33 12 -83 12q-23 0 -48 -12q-31 -14 -31 -34q0 -38 51 -63q42 -22 83 -22q32 0 65 9l11 3q6 1 10 2q4 -1 5 -2q2 -3 -1 -14z" />
    <glyph glyph-name="uFE8A" unicode="&#x626;" horiz-adv-x="1277" arabic-form="final" 
d="M1304 1h-292q-54 0 -104 -17q-69 -23 -69 -65q0 -10 184.5 -51t184.5 -81q0 -151 -87 -225q-147 -126 -518 -126q-448 0 -448 331q0 75 32 166.5t78 151.5q18 24 33 25t15 -16q0 -15 -12 -38q-58 -110 -58 -228q0 -131 124 -194q95 -48 241 -48q155 0 284 16
q232 29 232 99q0 29 -101 46q-161 27 -186 34q-101 28 -101 86q0 46 49 115q41 57 86 94q90 73 256 73h177v-148zM486 417l-16 -63q-140 -27 -287 -80v47q25 15 84 47q-81 55 -81 94q0 37 53 100q58 69 111 69q67 0 98 -64q9 -19 3 -28q-7 -8 -27 -1q-36 13 -83 13
q-22 0 -48 -13q-31 -15 -31 -34q0 -38 51 -63q42 -22 83 -22q32 0 65 9l11 3q6 1 10 2q4 -1 5 -2q2 -3 -1 -14z" />
    <glyph glyph-name="uFE8B" unicode="&#x626;" horiz-adv-x="333" arabic-form="initial" 
d="M332 255q0 -254 -253 -254h-105v148h87q191 0 191 69q0 48 -87 159l52 126q8 19 13 19t21 -23q81 -119 81 -244zM321 776l-16 -63q-141 -27 -287 -80v47q24 15 83 48q-81 52 -81 93q0 38 53 100q59 69 111 69q69 0 99 -63q9 -19 2 -28t-27 -1q-31 12 -83 12
q-22 0 -48 -13q-31 -15 -31 -34q0 -38 51 -63q42 -22 83 -22q29 0 65 9l4 1q19 5 22 3t0 -15z" />
    <glyph glyph-name="uFE8C" unicode="&#x626;" horiz-adv-x="630" arabic-form="medial" 
d="M656 1h-98q-177 0 -237 116q-66 -116 -264 -116h-83v148h114q187 0 204 145q7 58 29 58t28 -60q13 -143 194 -143h113v-148zM435 617l-16 -62q-153 -32 -287 -80v46q35 23 84 48q-81 53 -81 93q0 38 53 101q58 69 111 69q66 0 98 -64q9 -19 3 -28q-7 -8 -27 -1
q-33 12 -83 12q-23 0 -48 -12q-31 -14 -31 -34q0 -38 51 -63q42 -22 83 -22q29 0 72 11q16 4 19 1q2 -4 -1 -15z" />
    <glyph glyph-name="u0627" unicode="&#x627;" horiz-adv-x="301" arabic-form="isolated" 
d="M299 159q0 -78 -32 -143q-19 -39 -26 -39q-8 0 -8 49q0 222 -78 1084l106 99q14 13 19 14q5 0 6 -22q13 -253 13 -1042z" />
    <glyph glyph-name="uFE8E" unicode="&#x627;" horiz-adv-x="480" arabic-form="final" 
d="M507 1h-87q-143 0 -198 117q-39 82 -38 245l1 244q1 177 -30 498l79 84q22 23 26 -3q27 -167 27 -505v-373q0 -159 153 -159h67v-148z" />
    <glyph glyph-name="u0628" unicode="&#x628;" horiz-adv-x="1387" arabic-form="isolated" 
d="M1386 288q0 -142 -95 -202q-64 -40 -231 -70q-184 -33 -398 -33q-507 0 -507 278q0 93 71 195q14 20 28 20t14 -18q0 -9 -5 -21q-28 -64 -28 -115q0 -189 483 -189q235 0 402 28q185 31 185 84q0 32 -88 150l63 121q11 21 24 0q82 -130 82 -228zM881 -290l-104 -104
l-105 105l104 104z" />
    <glyph glyph-name="uFE90" unicode="&#x628;" horiz-adv-x="1511" arabic-form="final" 
d="M1537 1h-54q-90 0 -147 41q-65 46 -66 132q-213 -197 -657 -197q-458 0 -458 278q0 94 71 195q13 19 28 19q14 0 14 -18q0 -8 -5 -20q-28 -64 -28 -115q0 -191 416 -191q485 0 644 211q32 42 49 42q12 0 12 -24q0 -17 -7 -51t-7 -51q0 -103 141 -103h54v-148zM854 -290
l-104 -104l-104 105l104 104z" />
    <glyph glyph-name="uFE91" unicode="&#x628;" horiz-adv-x="333" arabic-form="initial" 
d="M332 255q0 -254 -253 -254h-105v148h87q191 0 191 69q0 48 -87 159l52 126q8 19 13 19t21 -23q81 -119 81 -244zM291 -281l-104 -104l-105 105l104 104z" />
    <glyph glyph-name="uFE92" unicode="&#x628;" horiz-adv-x="630" arabic-form="medial" 
d="M656 1h-98q-177 0 -237 116q-66 -116 -264 -116h-83v148h114q187 0 204 145q7 58 29 58t28 -60q13 -143 194 -143h113v-148zM379 -281l-104 -104l-105 105l104 104z" />
    <glyph glyph-name="u067E" unicode="&#x67e;" horiz-adv-x="1387" arabic-form="isolated" 
d="M1386 288q0 -142 -95 -202q-64 -40 -231 -70q-184 -33 -398 -33q-507 0 -507 278q0 93 71 195q14 20 28 20t14 -18q0 -9 -5 -21q-28 -64 -28 -115q0 -189 483 -189q235 0 402 28q185 31 185 84q0 32 -88 150l63 121q11 21 24 0q82 -130 82 -228zM671 -451l94 93l94 -94
l-94 -93zM556 -251l94 93l94 -94l-93 -93zM784 -251l93 93l95 -94l-94 -93z" />
    <glyph glyph-name="uFB57" unicode="&#x67e;" horiz-adv-x="1511" arabic-form="final" 
d="M1537 1h-54q-90 0 -147 41q-65 46 -66 132q-213 -197 -657 -197q-458 0 -458 278q0 94 71 195q13 19 28 19q14 0 14 -18q0 -8 -5 -20q-28 -64 -28 -115q0 -191 416 -191q485 0 644 211q32 42 49 42q12 0 12 -24q0 -17 -7 -51t-7 -51q0 -103 141 -103h54v-148zM671 -451
l94 93l94 -94l-94 -93zM556 -251l94 93l94 -94l-93 -93zM784 -251l93 93l95 -94l-94 -93z" />
    <glyph glyph-name="uFB58" unicode="&#x67e;" horiz-adv-x="460" arabic-form="initial" 
d="M332 255q0 -254 -253 -254h-105v148h87q191 0 191 69q0 48 -87 159l52 126q8 19 13 19t21 -23q81 -119 81 -244zM143 -451l93 93l94 -94l-93 -93zM27 -251l95 93l94 -94l-94 -93zM255 -251l94 93l95 -94l-94 -93z" />
    <glyph glyph-name="uFB59" unicode="&#x67e;" horiz-adv-x="630" arabic-form="medial" 
d="M656 1h-98q-177 0 -237 116q-66 -116 -264 -116h-83v148h114q187 0 204 145q7 58 29 58t28 -60q13 -143 194 -143h113v-148zM152 -451l93 93l94 -94l-93 -93zM36 -251l94 93l95 -94l-94 -93zM264 -251l94 93l95 -94l-94 -93z" />
    <glyph glyph-name="u062A" unicode="&#x62a;" horiz-adv-x="1387" arabic-form="isolated" 
d="M1386 288q0 -142 -95 -202q-64 -40 -231 -70q-184 -33 -398 -33q-507 0 -507 278q0 93 71 195q14 20 28 20t14 -18q0 -9 -5 -21q-28 -64 -28 -115q0 -189 483 -189q235 0 402 28q185 31 185 84q0 32 -88 150l63 121q11 21 24 0q82 -130 82 -228zM961 744l-99 -98l-99 99
l98 99zM742 744l-99 -98l-100 99l99 99z" />
    <glyph glyph-name="uFE96" unicode="&#x62a;" horiz-adv-x="1511" arabic-form="final" 
d="M1537 1h-54q-90 0 -147 41q-65 46 -66 132q-213 -197 -657 -197q-458 0 -458 278q0 94 71 195q13 19 28 19q14 0 14 -18q0 -8 -5 -20q-28 -64 -28 -115q0 -191 416 -191q485 0 644 211q32 42 49 42q12 0 12 -24q0 -17 -7 -51t-7 -51q0 -103 141 -103h54v-148zM961 744
l-99 -98l-99 99l98 99zM742 744l-99 -98l-100 99l99 99z" />
    <glyph glyph-name="uFE97" unicode="&#x62a;" horiz-adv-x="433" arabic-form="initial" 
d="M332 255q0 -254 -253 -254h-105v148h87q191 0 191 69q0 48 -87 159l52 126q8 19 13 19t21 -23q81 -119 81 -244zM433 815l-99 -99l-100 100l99 98zM213 815l-98 -99l-100 100l99 98z" />
    <glyph glyph-name="uFE98" unicode="&#x62a;" horiz-adv-x="630" arabic-form="medial" 
d="M656 1h-98q-177 0 -237 116q-66 -116 -264 -116h-83v148h114q187 0 204 145q7 58 29 58t28 -60q13 -143 194 -143h113v-148zM441 744l-98 -98l-100 99l99 99zM222 744l-99 -98l-99 99l98 99z" />
    <glyph glyph-name="u062B" unicode="&#x62b;" horiz-adv-x="1387" arabic-form="isolated" 
d="M1386 288q0 -142 -95 -202q-64 -40 -231 -70q-184 -33 -398 -33q-507 0 -507 278q0 93 71 195q14 20 28 20t14 -18q0 -9 -5 -21q-28 -64 -28 -115q0 -189 483 -189q235 0 402 28q185 31 185 84q0 32 -88 150l63 121q11 21 24 0q82 -130 82 -228zM869 842l-94 -93l-94 94
l93 93zM984 642l-94 -93l-95 94l94 93zM756 642l-94 -93l-95 94l95 93z" />
    <glyph glyph-name="uFE9A" unicode="&#x62b;" horiz-adv-x="1511" arabic-form="final" 
d="M1537 1h-54q-90 0 -147 41q-65 46 -66 132q-213 -197 -657 -197q-458 0 -458 278q0 94 71 195q13 19 28 19q14 0 14 -18q0 -8 -5 -20q-28 -64 -28 -115q0 -191 416 -191q485 0 644 211q32 42 49 42q12 0 12 -24q0 -17 -7 -51t-7 -51q0 -103 141 -103h54v-148zM851 842
l-93 -93l-95 94l94 93zM966 642l-94 -93l-94 94l93 93zM738 642l-93 -93l-95 94l94 93z" />
    <glyph glyph-name="uFE9B" unicode="&#x62b;" horiz-adv-x="433" arabic-form="initial" 
d="M332 255q0 -254 -253 -254h-105v148h87q191 0 191 69q0 48 -87 159l52 126q8 19 13 19t21 -23q81 -119 81 -244zM305 992l-94 -94l-94 95l94 93zM420 792l-94 -93l-94 94l93 93zM192 792l-93 -93l-95 94l94 93z" />
    <glyph glyph-name="uFE9C" unicode="&#x62b;" horiz-adv-x="630" arabic-form="medial" 
d="M656 1h-98q-177 0 -237 116q-66 -116 -264 -116h-83v148h114q187 0 204 145q7 58 29 58t28 -60q13 -143 194 -143h113v-148zM331 842l-93 -93l-94 94l93 93zM447 642l-95 -93l-94 94l93 93zM218 642l-93 -93l-95 94l94 93z" />
    <glyph glyph-name="u062C" unicode="&#x62c;" horiz-adv-x="1061" arabic-form="isolated" 
d="M1096 -423q-96 -87 -201 -119q-91 -28 -234 -28q-277 0 -407 133q-99 101 -99 256q0 372 488 565q-205 35 -294 35q-44 0 -119 -51.5t-63 -51.5q-15 0 -11 32q7 58 46 116q65 97 179 97q92 0 274 -32t275 -32h94q36 0 36 -9q0 -6 -8 -29l-35 -99q-90 -2 -214 -24
q-196 -35 -360 -142q-204 -134 -204 -305q0 -169 169 -254q133 -67 318 -67q199 0 350 41q15 4 25 4q15 0 15 -8q0 -10 -20 -28zM770 -80l-104 -104l-105 105l104 104z" />
    <glyph glyph-name="uFE9E" unicode="&#x62c;" horiz-adv-x="1145" arabic-form="final" 
d="M1172 1h-124q-257 0 -257 231q0 48 12 104q-202 -41 -360 -143q-204 -132 -204 -304q0 -169 169 -254q133 -67 318 -67q199 0 350 41q15 4 25 4q15 0 15 -8q0 -10 -20 -28q-96 -87 -201 -119q-91 -28 -234 -28q-277 0 -407 133q-99 101 -99 256q0 372 488 565
q-205 35 -294 35q-44 0 -119 -51.5t-63 -51.5q-15 0 -11 32q7 58 46 116q65 97 179 97q92 0 274 -32t275 -32h94q36 0 36 -9q0 -7 -8 -29l-35 -98q-55 -3 -162 -15q-4 -29 -4 -51q0 -146 203 -146h118v-148zM691 -91l-104 -104l-105 105l104 104z" />
    <glyph glyph-name="uFE9F" unicode="&#x62c;" horiz-adv-x="1038" arabic-form="initial" 
d="M1025 373l-56 -100q-143 2 -200 -19q-77 -29 -232 -106q-150 -75 -232 -104q-121 -43 -240 -43h-91v148h96q178 0 313 59l298 130q-71 16 -227 74q-129 48 -167 48q-74 0 -151 -65q-15 -13 -27 -13q-13 0 -13 17q0 7 4 19q63 185 215 185q54 0 147 -42q156 -70 232 -96
q131 -44 312 -56q32 -2 32 -8q0 -5 -13 -28zM603 -260l-104 -104l-105 105l104 104z" />
    <glyph glyph-name="uFEA0" unicode="&#x62c;" horiz-adv-x="1119" arabic-form="medial" 
d="M1154 1h-130q-252 0 -252 250q0 29 3 66q-87 -42 -242 -138q-146 -91 -223 -124q-124 -54 -245 -54h-91v148h96q160 0 317 80q78 41 281 146q-44 9 -224 56q-131 34 -157 34q-69 0 -151 -70q-15 -13 -27 -13q-13 0 -13 17q0 7 4 19q64 190 215 190q57 0 148 -31
q139 -47 231 -68q125 -28 309 -24q29 1 33 -4t-5 -28l-43 -111q-120 1 -149 -14q0 -86 20 -118q38 -61 170 -61h125v-148zM664 -260l-104 -104l-105 105l104 104z" />
    <glyph glyph-name="u0686" unicode="&#x686;" horiz-adv-x="1061" arabic-form="isolated" 
d="M1096 -423q-96 -87 -201 -119q-91 -28 -234 -28q-277 0 -407 133q-99 101 -99 256q0 372 488 565q-205 35 -294 35q-44 0 -119 -51.5t-63 -51.5q-15 0 -11 32q7 58 46 116q65 97 179 97q92 0 274 -32t275 -32h94q36 0 36 -9q0 -6 -8 -29l-35 -99q-90 -2 -214 -24
q-196 -35 -360 -142q-204 -134 -204 -305q0 -169 169 -254q133 -67 318 -67q199 0 350 41q15 4 25 4q15 0 15 -8q0 -10 -20 -28zM573 -192l93 93l94 -94l-93 -93zM457 8l94 93l95 -94l-94 -93zM685 8l94 93l95 -94l-94 -93z" />
    <glyph glyph-name="uFB7B" unicode="&#x686;" horiz-adv-x="1145" arabic-form="final" 
d="M1172 1h-124q-257 0 -257 231q0 48 12 104q-202 -41 -360 -143q-204 -132 -204 -304q0 -169 169 -254q133 -67 318 -67q199 0 350 41q15 4 25 4q15 0 15 -8q0 -10 -20 -28q-96 -87 -201 -119q-91 -28 -234 -28q-277 0 -407 133q-99 101 -99 256q0 372 488 565
q-205 35 -294 35q-44 0 -119 -51.5t-63 -51.5q-15 0 -11 32q7 58 46 116q65 97 179 97q92 0 274 -32t275 -32h94q36 0 36 -9q0 -7 -8 -29l-35 -98q-55 -3 -162 -15q-4 -29 -4 -51q0 -146 203 -146h118v-148zM484 -227l94 93l94 -94l-93 -94zM369 -27l94 93l95 -94l-94 -94z
M597 -27l94 93l95 -94l-95 -94z" />
    <glyph glyph-name="uFB7C" unicode="&#x686;" horiz-adv-x="1038" arabic-form="initial" 
d="M1025 373l-56 -100q-143 2 -200 -19q-77 -29 -232 -106q-150 -75 -232 -104q-121 -43 -240 -43h-91v148h96q178 0 313 59l298 130q-71 16 -227 74q-129 48 -167 48q-74 0 -151 -65q-15 -13 -27 -13q-13 0 -13 17q0 7 4 19q63 185 215 185q54 0 147 -42q156 -70 232 -96
q131 -44 312 -56q32 -2 32 -8q0 -5 -13 -28zM432 -439l93 94l94 -95l-93 -93zM316 -239l94 94l95 -95l-94 -93zM544 -239l94 94l95 -95l-94 -93z" />
    <glyph glyph-name="uFB7D" unicode="&#x686;" horiz-adv-x="1119" arabic-form="medial" 
d="M1154 1h-130q-252 0 -252 250q0 29 3 66q-87 -42 -242 -138q-146 -91 -223 -124q-124 -54 -245 -54h-91v148h96q160 0 317 80q78 41 281 146q-44 9 -224 56q-131 34 -157 34q-69 0 -151 -70q-15 -13 -27 -13q-13 0 -13 17q0 7 4 19q64 190 215 190q57 0 148 -31
q139 -47 231 -68q125 -28 309 -24q29 1 33 -4t-5 -28l-43 -111q-120 1 -149 -14q0 -86 20 -118q38 -61 170 -61h125v-148zM493 -439l94 94l94 -95l-93 -93zM378 -239l94 94l94 -95l-93 -93zM606 -239l93 94l96 -95l-95 -93z" />
    <glyph glyph-name="u062D" unicode="&#x62d;" horiz-adv-x="1061" arabic-form="isolated" 
d="M1096 -423q-96 -87 -201 -119q-91 -28 -234 -28q-277 0 -407 133q-99 101 -99 256q0 372 488 565q-205 35 -294 35q-44 0 -119 -51.5t-63 -51.5q-15 0 -11 32q7 58 46 116q65 97 179 97q92 0 274 -32t275 -32h94q36 0 36 -9q0 -6 -8 -29l-35 -99q-90 -2 -214 -24
q-196 -35 -360 -142q-204 -134 -204 -305q0 -169 169 -254q133 -67 318 -67q199 0 350 41q15 4 25 4q15 0 15 -8q0 -10 -20 -28z" />
    <glyph glyph-name="uFEA2" unicode="&#x62d;" horiz-adv-x="1145" arabic-form="final" 
d="M1172 1h-124q-257 0 -257 231q0 48 12 104q-202 -41 -360 -143q-204 -132 -204 -304q0 -169 169 -254q133 -67 318 -67q199 0 350 41q15 4 25 4q15 0 15 -8q0 -10 -20 -28q-96 -87 -201 -119q-91 -28 -234 -28q-277 0 -407 133q-99 101 -99 256q0 372 488 565
q-205 35 -294 35q-44 0 -119 -51.5t-63 -51.5q-15 0 -11 32q7 58 46 116q65 97 179 97q92 0 274 -32t275 -32h94q36 0 36 -9q0 -7 -8 -29l-35 -98q-55 -3 -162 -15q-4 -29 -4 -51q0 -146 203 -146h118v-148z" />
    <glyph glyph-name="uFEA3" unicode="&#x62d;" horiz-adv-x="1038" arabic-form="initial" 
d="M1025 373l-56 -100q-143 2 -200 -19q-77 -29 -232 -106q-150 -75 -232 -104q-121 -43 -240 -43h-91v148h96q178 0 313 59l298 130q-71 16 -227 74q-129 48 -167 48q-74 0 -151 -65q-15 -13 -27 -13q-13 0 -13 17q0 7 4 19q63 185 215 185q54 0 147 -42q156 -70 232 -96
q131 -44 312 -56q32 -2 32 -8q0 -5 -13 -28z" />
    <glyph glyph-name="uFEA4" unicode="&#x62d;" horiz-adv-x="1119" arabic-form="medial" 
d="M1154 1h-130q-252 0 -252 250q0 29 3 66q-87 -42 -242 -138q-146 -91 -223 -124q-124 -54 -245 -54h-91v148h96q160 0 317 80q78 41 281 146q-44 9 -224 56q-131 34 -157 34q-69 0 -151 -70q-15 -13 -27 -13q-13 0 -13 17q0 7 4 19q64 190 215 190q57 0 148 -31
q139 -47 231 -68q125 -28 309 -24q29 1 33 -4t-5 -28l-43 -111q-120 1 -149 -14q0 -86 20 -118q38 -61 170 -61h125v-148z" />
    <glyph glyph-name="u062E" unicode="&#x62e;" horiz-adv-x="1061" arabic-form="isolated" 
d="M1096 -423q-96 -87 -201 -119q-91 -28 -234 -28q-277 0 -407 133q-99 101 -99 256q0 372 488 565q-205 35 -294 35q-44 0 -119 -51.5t-63 -51.5q-15 0 -11 32q7 58 46 116q65 97 179 97q92 0 274 -32t275 -32h94q36 0 36 -9q0 -6 -8 -29l-35 -99q-90 -2 -214 -24
q-196 -35 -360 -142q-204 -134 -204 -305q0 -169 169 -254q133 -67 318 -67q199 0 350 41q15 4 25 4q15 0 15 -8q0 -10 -20 -28zM733 903l-104 -104l-105 105l104 104z" />
    <glyph glyph-name="uFEA6" unicode="&#x62e;" horiz-adv-x="1145" arabic-form="final" 
d="M1172 1h-124q-257 0 -257 231q0 48 12 104q-202 -41 -360 -143q-204 -132 -204 -304q0 -169 169 -254q133 -67 318 -67q199 0 350 41q15 4 25 4q15 0 15 -8q0 -10 -20 -28q-96 -87 -201 -119q-91 -28 -234 -28q-277 0 -407 133q-99 101 -99 256q0 372 488 565
q-205 35 -294 35q-44 0 -119 -51.5t-63 -51.5q-15 0 -11 32q7 58 46 116q65 97 179 97q92 0 274 -32t275 -32h94q36 0 36 -9q0 -7 -8 -29l-35 -98q-55 -3 -162 -15q-4 -29 -4 -51q0 -146 203 -146h118v-148zM733 903l-104 -104l-105 105l104 104z" />
    <glyph glyph-name="uFEA7" unicode="&#x62e;" horiz-adv-x="1038" arabic-form="initial" 
d="M1025 373l-56 -100q-143 2 -200 -19q-77 -29 -232 -106q-150 -75 -232 -104q-121 -43 -240 -43h-91v148h96q178 0 313 59l298 130q-71 16 -227 74q-129 48 -167 48q-74 0 -151 -65q-15 -13 -27 -13q-13 0 -13 17q0 7 4 19q63 185 215 185q54 0 147 -42q156 -70 232 -96
q131 -44 312 -56q32 -2 32 -8q0 -5 -13 -28zM662 956l-104 -104l-104 105l104 104z" />
    <glyph glyph-name="uFEA8" unicode="&#x62e;" horiz-adv-x="1119" arabic-form="medial" 
d="M1154 1h-130q-252 0 -252 250q0 29 3 66q-87 -42 -242 -138q-146 -91 -223 -124q-124 -54 -245 -54h-91v148h96q160 0 317 80q78 41 281 146q-44 9 -224 56q-131 34 -157 34q-69 0 -151 -70q-15 -13 -27 -13q-13 0 -13 17q0 7 4 19q64 190 215 190q57 0 148 -31
q139 -47 231 -68q125 -28 309 -24q29 1 33 -4t-5 -28l-43 -111q-120 1 -149 -14q0 -86 20 -118q38 -61 170 -61h125v-148zM662 956l-104 -104l-104 105l104 104z" />
    <glyph glyph-name="u062F" unicode="&#x62f;" horiz-adv-x="782" arabic-form="isolated" 
d="M780 268q0 -267 -354 -267q-132 0 -193 36q-79 46 -79 167q0 57 31 116q14 27 26 27q15 0 11 -33q-3 -24 -3 -40q0 -80 72 -108q44 -17 142 -17q280 0 280 87q0 137 -327 374l38 130q6 19 11 19q6 0 25 -15q320 -257 320 -476z" />
    <glyph glyph-name="uFEAA" unicode="&#x62f;" horiz-adv-x="971" arabic-form="final" 
d="M997 1h-57q-72 0 -122 46q-31 29 -75 102q-46 -82 -107 -115q-74 -41 -212 -41q-269 0 -269 193q0 65 40 134q13 23 26 23q12 0 12 -20q0 -11 -3 -32.5t-3 -32.5q0 -115 195 -115q275 0 275 107q0 58 -159 417l57 99q11 19 15 20q6 -4 15 -25q64 -151 175 -456
q57 -156 161 -156h36v-148z" />
    <glyph glyph-name="u0630" unicode="&#x630;" horiz-adv-x="782" arabic-form="isolated" 
d="M780 268q0 -267 -354 -267q-132 0 -193 36q-79 46 -79 167q0 57 31 116q14 27 26 27q15 0 11 -33q-3 -24 -3 -40q0 -80 72 -108q44 -17 142 -17q280 0 280 87q0 137 -327 374l38 130q6 19 11 19q6 0 25 -15q320 -257 320 -476zM536 1051l-104 -104l-105 105l104 104z" />
    <glyph glyph-name="uFEAC" unicode="&#x630;" horiz-adv-x="971" arabic-form="final" 
d="M997 1h-57q-72 0 -122 46q-31 29 -75 102q-46 -82 -107 -115q-74 -41 -212 -41q-269 0 -269 193q0 65 40 134q13 23 26 23q12 0 12 -20q0 -11 -3 -32.5t-3 -32.5q0 -115 195 -115q275 0 275 107q0 58 -159 417l57 99q11 19 15 20q6 -4 15 -25q64 -151 175 -456
q57 -156 161 -156h36v-148zM615 1051l-104 -104l-105 105l104 104z" />
    <glyph glyph-name="u0631" unicode="&#x631;" horiz-adv-x="647" arabic-form="isolated" 
d="M645 -11q0 -187 -119 -353q-102 -142 -170 -142q-146 0 -252 15q-35 5 -35 17t36 19q150 31 302 159q162 137 162 263q0 84 -134 214l58 121q8 16 12 17q6 -2 17 -16q46 -56 83 -149q40 -98 40 -165z" />
    <glyph glyph-name="uFEAE" unicode="&#x631;" horiz-adv-x="770" arabic-form="final" 
d="M796 1h-54q-70 0 -106 24q2 -20 2 -40q0 -180 -117 -347q-101 -144 -165 -144q-146 0 -252 15q-35 5 -35 17t36 19q150 31 302 159q162 137 162 263q0 84 -134 214l59 120q7 15 12 16q6 -2 17 -17q59 -78 91 -104q60 -47 142 -47h40v-148z" />
    <glyph glyph-name="u0632" unicode="&#x632;" horiz-adv-x="647" arabic-form="isolated" 
d="M645 -11q0 -187 -119 -353q-102 -142 -170 -142q-146 0 -252 15q-35 5 -35 17t36 19q150 31 302 159q162 137 162 263q0 84 -134 214l58 121q8 16 12 17q6 -2 17 -16q46 -56 83 -149q40 -98 40 -165zM551 676l-104 -104l-104 105l104 103z" />
    <glyph glyph-name="uFEB0" unicode="&#x632;" horiz-adv-x="770" arabic-form="final" 
d="M796 1h-54q-70 0 -106 24q2 -20 2 -40q0 -180 -117 -347q-101 -144 -165 -144q-146 0 -252 15q-35 5 -35 17t36 19q150 31 302 159q162 137 162 263q0 84 -134 214l59 120q7 15 12 16q6 -2 17 -17q59 -78 91 -104q60 -47 142 -47h40v-148zM551 676l-104 -104l-104 105
l104 103z" />
    <glyph glyph-name="u0698" unicode="&#x698;" horiz-adv-x="647" arabic-form="isolated" 
d="M645 -11q0 -187 -119 -353q-102 -142 -170 -142q-146 0 -252 15q-35 5 -35 17t36 19q150 31 302 159q162 137 162 263q0 84 -134 214l58 121q8 16 12 17q6 -2 17 -16q46 -56 83 -149q40 -98 40 -165zM499 835l-94 -93l-94 94l93 93zM614 635l-94 -93l-95 94l94 93z
M386 635l-94 -93l-95 94l95 93z" />
    <glyph glyph-name="uFB8B" unicode="&#x698;" horiz-adv-x="770" arabic-form="final" 
d="M796 1h-54q-70 0 -106 24q2 -20 2 -40q0 -180 -117 -347q-101 -144 -165 -144q-146 0 -252 15q-35 5 -35 17t36 19q150 31 302 159q162 137 162 263q0 84 -134 214l59 120q7 15 12 16q6 -2 17 -17q59 -78 91 -104q60 -47 142 -47h40v-148zM499 835l-94 -93l-94 94l93 93z
M614 635l-94 -93l-95 94l94 93zM386 635l-94 -93l-95 94l95 93z" />
    <glyph glyph-name="u0633" unicode="&#x633;" horiz-adv-x="1776" arabic-form="isolated" 
d="M1775 269q0 -271 -228 -271q-126 0 -172 112q-63 -115 -183 -115q-44 0 -95 16q-4 -115 -14 -244q-51 -143 -220 -221q-145 -67 -314 -67q-168 0 -276 83q-118 92 -118 256q0 87 43 186q31 71 64 111q16 19 29 19q12 0 12 -14q0 -9 -6 -21q-57 -117 -57 -214
q0 -95 63 -164q83 -91 251 -91q190 0 331 68q116 56 146 122q10 22 3 85q-7 64 -19 95q-23 60 -124 190l56 106q12 23 18 23q5 0 18 -19q53 -80 73 -99q54 -53 130 -53q85 0 123 46q25 31 40 109q7 38 24 38q15 0 19 -34q12 -93 56 -128t140 -35q40 0 69 21q33 23 33 61
q0 55 -74 138l65 111q10 17 15 18q6 -3 16 -18q63 -97 63 -206z" />
    <glyph glyph-name="uFEB2" unicode="&#x633;" horiz-adv-x="1931" arabic-form="final" 
d="M1957 1h-70q-129 0 -182 105q-46 -110 -170 -110q-116 0 -162 114q-63 -115 -181 -115q-44 0 -95 16q-4 -115 -14 -244q-51 -143 -220 -221q-145 -67 -314 -67q-168 0 -276 83q-118 92 -118 256q0 87 43 186q31 71 64 111q16 19 29 19q12 0 12 -14q0 -9 -6 -21
q-57 -117 -57 -214q0 -95 63 -164q83 -91 251 -91q190 0 331 68q116 56 146 122q10 22 3 85q-7 64 -19 95q-23 60 -124 190l56 106q12 23 18 23q5 0 18 -19q53 -80 73 -99q54 -53 130 -53q85 0 123 46q25 30 40 109q7 36 23 36t20 -32q21 -161 139 -161q142 0 158 152
q4 38 20 38q18 0 23 -37q20 -150 151 -150h74v-148z" />
    <glyph glyph-name="uFEB3" unicode="&#x633;" horiz-adv-x="1041" arabic-form="initial" 
d="M1035 274q0 -114 -53 -188q-60 -85 -169 -85q-128 0 -184 105q-71 -105 -180 -105q-140 0 -187 105q-73 -105 -199 -105h-89v148h102q139 0 164 150q6 37 24 37q16 0 20 -38q15 -149 161 -149q86 0 122 44q25 31 36 105q5 36 21 36q17 0 22 -35q20 -150 154 -150
q146 0 146 69q0 55 -72 146l58 109q14 26 20 26t22 -29q61 -111 61 -196z" />
    <glyph glyph-name="uFEB4" unicode="&#x633;" horiz-adv-x="1180" arabic-form="medial" 
d="M1207 1h-71q-129 0 -181 105q-46 -105 -170 -105q-108 0 -166 105q-54 -105 -170 -105q-140 0 -187 105q-73 -105 -199 -105h-89v148h102q139 0 164 150q6 37 24 37q16 0 20 -38q15 -149 161 -149q142 0 158 149q4 38 20 38q18 0 23 -37q20 -150 134 -150q142 0 158 149
q4 38 20 38q18 0 23 -37q19 -150 152 -150h74v-148z" />
    <glyph glyph-name="u0634" unicode="&#x634;" horiz-adv-x="1776" arabic-form="isolated" 
d="M1775 269q0 -271 -228 -271q-126 0 -172 112q-63 -115 -183 -115q-44 0 -95 16q-4 -115 -14 -244q-51 -143 -220 -221q-145 -67 -314 -67q-168 0 -276 83q-118 92 -118 256q0 87 43 186q31 71 64 111q16 19 29 19q12 0 12 -14q0 -9 -6 -21q-57 -117 -57 -214
q0 -95 63 -164q83 -91 251 -91q190 0 331 68q116 56 146 122q10 22 3 85q-7 64 -19 95q-23 60 -124 190l56 106q12 23 18 23q5 0 18 -19q53 -80 73 -99q54 -53 130 -53q85 0 123 46q25 31 40 109q7 38 24 38q15 0 19 -34q12 -93 56 -128t140 -35q40 0 69 21q33 23 33 61
q0 55 -74 138l65 111q10 17 15 18q6 -3 16 -18q63 -97 63 -206zM1464 941l-93 -94l-95 95l94 93zM1579 741l-94 -94l-94 95l93 93zM1351 741l-93 -94l-95 95l94 93z" />
    <glyph glyph-name="uFEB6" unicode="&#x634;" horiz-adv-x="1931" arabic-form="final" 
d="M1957 1h-70q-129 0 -182 105q-46 -110 -170 -110q-116 0 -162 114q-63 -115 -181 -115q-44 0 -95 16q-4 -115 -14 -244q-51 -143 -220 -221q-145 -67 -314 -67q-168 0 -276 83q-118 92 -118 256q0 87 43 186q31 71 64 111q16 19 29 19q12 0 12 -14q0 -9 -6 -21
q-57 -117 -57 -214q0 -95 63 -164q83 -91 251 -91q190 0 331 68q116 56 146 122q10 22 3 85q-7 64 -19 95q-23 60 -124 190l56 106q12 23 18 23q5 0 18 -19q53 -80 73 -99q54 -53 130 -53q85 0 123 46q25 30 40 109q7 36 23 36t20 -32q21 -161 139 -161q142 0 158 152
q4 38 20 38q18 0 23 -37q20 -150 151 -150h74v-148zM1464 844l-93 -94l-95 95l94 93zM1579 644l-94 -93l-94 94l93 93zM1351 644l-93 -93l-95 94l94 93z" />
    <glyph glyph-name="uFEB7" unicode="&#x634;" horiz-adv-x="1041" arabic-form="initial" 
d="M1035 274q0 -114 -53 -188q-60 -85 -169 -85q-128 0 -184 105q-71 -105 -180 -105q-140 0 -187 105q-73 -105 -199 -105h-89v148h102q139 0 164 150q6 37 24 37q16 0 20 -38q15 -149 161 -149q86 0 122 44q25 31 36 105q5 36 21 36q17 0 22 -35q20 -150 154 -150
q146 0 146 69q0 55 -72 146l58 109q14 26 20 26t22 -29q61 -111 61 -196zM715 941l-93 -94l-94 95l93 93zM831 741l-95 -94l-94 95l94 93zM603 741l-94 -94l-95 95l94 93z" />
    <glyph glyph-name="uFEB8" unicode="&#x634;" horiz-adv-x="1180" arabic-form="medial" 
d="M1207 1h-71q-129 0 -181 105q-46 -105 -170 -105q-108 0 -166 105q-54 -105 -170 -105q-140 0 -187 105q-73 -105 -199 -105h-89v148h102q139 0 164 150q6 37 24 37q16 0 20 -38q15 -149 161 -149q142 0 158 149q4 38 20 38q18 0 23 -37q20 -150 134 -150q142 0 158 149
q4 38 20 38q18 0 23 -37q19 -150 152 -150h74v-148zM724 844l-93 -94l-95 95l94 93zM839 644l-94 -93l-94 94l93 93zM611 644l-93 -93l-95 94l94 93z" />
    <glyph glyph-name="u0635" unicode="&#x635;" horiz-adv-x="1884" arabic-form="isolated" 
d="M1882 333q0 -185 -208 -273q-153 -65 -366 -65q-121 0 -211 29q-4 -121 -14 -257q-51 -143 -220 -221q-145 -67 -314 -67q-168 0 -276 83q-118 92 -118 256q0 87 43 186q31 71 64 111q16 19 29 19q12 0 12 -14q0 -9 -6 -21q-57 -117 -57 -214q0 -95 63 -164
q83 -91 251 -91q190 0 331 68q116 56 146 122q10 22 5 81q-5 58 -21 99q-25 64 -124 190l56 106q12 23 19 23q6 0 17 -19q51 -88 130 -140q340 371 557 371q89 0 149 -54q63 -57 63 -144zM1789 259q0 57 -64 97q-56 35 -116 35q-178 0 -415 -243q54 -3 110 -3q130 0 267 19
q218 30 218 95z" />
    <glyph glyph-name="uFEBA" unicode="&#x635;" horiz-adv-x="1963" arabic-form="final" 
d="M1990 1h-101q-163 0 -280 36q-132 -42 -301 -42q-121 0 -211 29q-4 -121 -14 -257q-51 -143 -220 -221q-145 -67 -314 -67q-168 0 -276 83q-118 92 -118 256q0 87 43 186q31 71 64 111q16 19 29 19q12 0 12 -14q0 -9 -6 -21q-57 -117 -57 -214q0 -95 63 -164
q83 -91 251 -91q190 0 331 68q116 56 146 122q10 22 5 81q-5 58 -21 99q-25 64 -124 190l56 106q12 23 19 23q6 0 17 -19q51 -88 130 -140q340 371 557 371q89 0 149 -54q63 -57 63 -144q0 -111 -85 -193q23 0 69.5 4.5t69.5 4.5h54v-148zM544 -529zM1789 259q0 57 -64 97
q-56 35 -116 35q-178 0 -415 -243q54 -3 110 -3q130 0 267 19q218 30 218 95z" />
    <glyph glyph-name="uFEBB" unicode="&#x635;" horiz-adv-x="1143" arabic-form="initial" 
d="M1142 340q0 -192 -225 -278q-157 -60 -384 -60q-131 0 -186 14q-93 24 -132 102q-70 -117 -188 -117h-53v148h52q145 0 171 147q6 36 24 36t22 -36q15 -135 123 -141q356 383 564 383q89 0 149 -54q63 -57 63 -144zM1049 266q0 57 -64 97q-56 35 -116 35
q-180 0 -414 -243q54 -3 109 -3q127 0 267 20q218 31 218 94z" />
    <glyph glyph-name="uFEBC" unicode="&#x635;" horiz-adv-x="1224" arabic-form="medial" 
d="M1250 1h-101q-132 0 -280 43q-132 -42 -336 -42q-131 0 -186 14q-93 24 -132 102q-70 -117 -188 -117h-53v148h52q145 0 171 147q6 36 24 36t22 -36q15 -135 123 -141q356 383 564 383q89 0 149 -54q63 -57 63 -144q0 -118 -85 -202q23 0 69.5 5.5t69.5 5.5h54v-148z
M1049 266q0 57 -64 97q-56 35 -116 35q-180 0 -414 -243q54 -3 109 -3q127 0 267 20q218 31 218 94z" />
    <glyph glyph-name="u0636" unicode="&#x636;" horiz-adv-x="1884" arabic-form="isolated" 
d="M1882 333q0 -185 -208 -273q-153 -65 -366 -65q-121 0 -211 29q-4 -121 -14 -257q-51 -143 -220 -221q-145 -67 -314 -67q-168 0 -276 83q-118 92 -118 256q0 87 43 186q31 71 64 111q16 19 29 19q12 0 12 -14q0 -9 -6 -21q-57 -117 -57 -214q0 -95 63 -164
q83 -91 251 -91q190 0 331 68q116 56 146 122q10 22 5 81q-5 58 -21 99q-25 64 -124 190l56 106q12 23 19 23q6 0 17 -19q51 -88 130 -140q340 371 557 371q89 0 149 -54q63 -57 63 -144zM1789 259q0 57 -64 97q-56 35 -116 35q-178 0 -415 -243q54 -3 110 -3q130 0 267 19
q218 30 218 95zM1600 896l-104 -104l-105 105l104 104z" />
    <glyph glyph-name="uFEBE" unicode="&#x636;" horiz-adv-x="1963" arabic-form="final" 
d="M1990 1h-101q-163 0 -280 36q-132 -42 -301 -42q-121 0 -211 29q-4 -121 -14 -257q-51 -143 -220 -221q-145 -67 -314 -67q-168 0 -276 83q-118 92 -118 256q0 87 43 186q31 71 64 111q16 19 29 19q12 0 12 -14q0 -9 -6 -21q-57 -117 -57 -214q0 -95 63 -164
q83 -91 251 -91q190 0 331 68q116 56 146 122q10 22 5 81q-5 58 -21 99q-25 64 -124 190l56 106q12 23 19 23q6 0 17 -19q51 -88 130 -140q340 371 557 371q89 0 149 -54q63 -57 63 -144q0 -111 -85 -193q23 0 69.5 4.5t69.5 4.5h54v-148zM544 -529zM1789 259q0 57 -64 97
q-56 35 -116 35q-178 0 -415 -243q54 -3 110 -3q130 0 267 19q218 30 218 95zM1600 896l-104 -104l-105 105l104 104z" />
    <glyph glyph-name="uFEBF" unicode="&#x636;" horiz-adv-x="1143" arabic-form="initial" 
d="M1142 340q0 -192 -225 -278q-157 -60 -384 -60q-131 0 -186 14q-93 24 -132 102q-70 -117 -188 -117h-53v148h52q145 0 171 147q6 36 24 36t22 -36q15 -135 123 -141q356 383 564 383q89 0 149 -54q63 -57 63 -144zM1049 266q0 57 -64 97q-56 35 -116 35
q-180 0 -414 -243q54 -3 109 -3q127 0 267 20q218 31 218 94zM851 896l-104 -104l-105 105l104 104z" />
    <glyph glyph-name="uFEC0" unicode="&#x636;" horiz-adv-x="1224" arabic-form="medial" 
d="M1250 1h-101q-132 0 -280 43q-132 -42 -336 -42q-131 0 -186 14q-93 24 -132 102q-70 -117 -188 -117h-53v148h52q145 0 171 147q6 36 24 36t22 -36q15 -135 123 -141q356 383 564 383q89 0 149 -54q63 -57 63 -144q0 -118 -85 -202q23 0 69.5 5.5t69.5 5.5h54v-148z
M1049 266q0 57 -64 97q-56 35 -116 35q-180 0 -414 -243q54 -3 109 -3q127 0 267 20q218 31 218 94zM851 896l-104 -104l-105 105l104 104z" />
    <glyph glyph-name="u0637" unicode="&#x637;" horiz-adv-x="1329" arabic-form="isolated" 
d="M1327 348q0 -218 -262 -296q-168 -50 -508 -50q-143 0 -204 16q-133 35 -186 156q-9 20 -9 26q0 5 5 5q6 0 27 -10q93 -44 244 -44q56 0 76 19t19 74q-1 82 -6 291q-11 320 -45 567l91 92q13 13 17 14q5 0 13 -29q19 -72 55 -157q9 -22 7 -26q-5 -2 -20 -2h-40
q19 -345 19 -409v-138q0 -76 -35 -218q12 0 97 80q105 99 184 149q127 80 237 80q96 0 156 -46q68 -51 68 -144zM1238 265q0 62 -73 105q-63 37 -129 37q-141 0 -439 -248q83 -9 169 -9q113 0 260 23q212 33 212 92z" />
    <glyph glyph-name="uFEC2" unicode="&#x637;" horiz-adv-x="1409" arabic-form="final" 
d="M1436 0h-53q-177 0 -322 41q-164 -39 -504 -39q-143 0 -204 16q-133 35 -186 156q-9 20 -9 26q0 5 5 5q6 0 27 -10q93 -44 244 -44q56 0 76 19t19 74q-1 82 -6 291q-11 320 -45 567l91 92q13 13 17 14q5 0 13 -29q19 -72 55 -157q9 -22 7 -26q-5 -2 -20 -2h-40
q19 -345 19 -409v-138q0 -76 -35 -218q12 0 97 80q105 99 184 149q127 80 237 80q96 0 156 -46q68 -51 68 -144q0 -133 -92 -211q25 0 74 6t74 6h53v-149zM1238 265q0 62 -73 105q-63 37 -129 37q-141 0 -439 -248q83 -9 169 -9q113 0 260 23q212 33 212 92z" />
    <glyph glyph-name="uFEC3" unicode="&#x637;" horiz-adv-x="1002" arabic-form="initial" 
d="M1001 348q0 -211 -230 -290q-166 -57 -540 -57h-257v148h134q61 0 81 25q15 19 14 79q-1 80 -6 287q-11 315 -45 562l91 92q13 13 17 14q5 0 13 -29q19 -72 55 -157q9 -22 7 -26q-5 -2 -20 -2h-40q19 -345 19 -409v-138q0 -76 -35 -218q12 0 97 80q105 99 184 149
q127 80 237 80q96 0 156 -46q68 -51 68 -144zM912 265q0 62 -73 105q-63 37 -129 37q-141 0 -439 -248q83 -9 169 -9q113 0 260 23q212 33 212 92z" />
    <glyph glyph-name="uFEC4" unicode="&#x637;" horiz-adv-x="1083" arabic-form="medial" 
d="M1110 0h-53q-177 0 -322 41q-168 -40 -504 -40h-257v148h134q61 0 81 26q15 19 14 78q-1 80 -6 287q-11 315 -45 562l91 92q13 13 17 14q5 0 13 -29q19 -72 55 -157q9 -22 7 -26q-5 -2 -20 -2h-40q19 -345 19 -409v-138q0 -76 -35 -218q12 0 97 80q105 99 184 149
q127 80 237 80q96 0 156 -46q68 -51 68 -144q0 -133 -92 -211q25 0 74 6t74 6h53v-149zM912 265q0 62 -73 105q-63 37 -129 37q-141 0 -439 -248q83 -9 169 -9q113 0 260 23q212 33 212 92z" />
    <glyph glyph-name="u0638" unicode="&#x638;" horiz-adv-x="1329" arabic-form="isolated" 
d="M1327 348q0 -218 -262 -296q-168 -50 -508 -50q-143 0 -204 16q-133 35 -186 156q-9 20 -9 26q0 5 5 5q6 0 27 -10q93 -44 244 -44q56 0 76 19t19 74q-1 82 -6 291q-11 320 -45 567l91 92q13 13 17 14q5 0 13 -29q19 -72 55 -157q9 -22 7 -26q-5 -2 -20 -2h-40
q19 -345 19 -409v-138q0 -76 -35 -218q12 0 97 80q105 99 184 149q127 80 237 80q96 0 156 -46q68 -51 68 -144zM1238 265q0 62 -73 105q-63 37 -129 37q-141 0 -439 -248q83 -9 169 -9q113 0 260 23q212 33 212 92zM1142 896l-104 -104l-105 105l104 104z" />
    <glyph glyph-name="uFEC6" unicode="&#x638;" horiz-adv-x="1409" arabic-form="final" 
d="M1436 0h-53q-177 0 -322 41q-164 -39 -504 -39q-143 0 -204 16q-133 35 -186 156q-9 20 -9 26q0 5 5 5q6 0 27 -10q93 -44 244 -44q56 0 76 19t19 74q-1 82 -6 291q-11 320 -45 567l91 92q13 13 17 14q5 0 13 -29q19 -72 55 -157q9 -22 7 -26q-5 -2 -20 -2h-40
q19 -345 19 -409v-138q0 -76 -35 -218q12 0 97 80q105 99 184 149q127 80 237 80q96 0 156 -46q68 -51 68 -144q0 -133 -92 -211q25 0 74 6t74 6h53v-149zM1238 265q0 62 -73 105q-63 37 -129 37q-141 0 -439 -248q83 -9 169 -9q113 0 260 23q212 33 212 92zM1142 896
l-104 -104l-105 105l104 104z" />
    <glyph glyph-name="uFEC7" unicode="&#x638;" horiz-adv-x="1002" arabic-form="initial" 
d="M1001 348q0 -211 -230 -290q-166 -57 -540 -57h-257v148h134q61 0 81 25q15 19 14 79q-1 80 -6 287q-11 315 -45 562l91 92q13 13 17 14q5 0 13 -29q19 -72 55 -157q9 -22 7 -26q-5 -2 -20 -2h-40q19 -345 19 -409v-138q0 -76 -35 -218q12 0 97 80q105 99 184 149
q127 80 237 80q96 0 156 -46q68 -51 68 -144zM912 265q0 62 -73 105q-63 37 -129 37q-141 0 -439 -248q83 -9 169 -9q113 0 260 23q212 33 212 92zM824 896l-103 -104l-105 105l104 104z" />
    <glyph glyph-name="uFEC8" unicode="&#x638;" horiz-adv-x="1083" arabic-form="medial" 
d="M1110 0h-53q-177 0 -322 41q-168 -40 -504 -40h-257v148h134q61 0 81 26q15 19 14 78q-1 80 -6 287q-11 315 -45 562l91 92q13 13 17 14q5 0 13 -29q19 -72 55 -157q9 -22 7 -26q-5 -2 -20 -2h-40q19 -345 19 -409v-138q0 -76 -35 -218q12 0 97 80q105 99 184 149
q127 80 237 80q96 0 156 -46q68 -51 68 -144q0 -133 -92 -211q25 0 74 6t74 6h53v-149zM912 265q0 62 -73 105q-63 37 -129 37q-141 0 -439 -248q83 -9 169 -9q113 0 260 23q212 33 212 92zM824 896l-103 -104l-105 105l104 104z" />
    <glyph glyph-name="u0639" unicode="&#x639;" horiz-adv-x="920" arabic-form="isolated" 
d="M1020 -436q-126 -132 -407 -132q-192 0 -316 87q-142 99 -142 283q0 277 294 446q-158 68 -158 192q0 100 93 206q99 112 208 112q123 0 193 -116q16 -26 16 -36q0 -7 -9 -7q-10 0 -35 9q-46 17 -158 17q-54 0 -131 -33q-89 -38 -89 -85q0 -58 84 -113q78 -51 140 -51
q47 0 271 73q29 9 35 10q5 0 5 -6q0 -7 -8 -31l-37 -112q-628 -134 -628 -404q0 -165 170 -242q124 -56 313 -56q177 0 277 31q39 12 49 12q8 0 8 -5q0 -9 -38 -49z" />
    <glyph glyph-name="uFECA" unicode="&#x639;" horiz-adv-x="1061" arabic-form="final" 
d="M1088 1h-53q-294 0 -477 225q-317 -177 -317 -360q0 -296 478 -296q170 0 295 39q26 8 38 8q9 0 9 -5q0 -11 -39 -50q-133 -131 -393 -131q-205 0 -327 78q-147 94 -147 288q0 174 127 318q68 77 209 172q-6 7 -84.5 67t-78.5 65q0 9 12 32q63 120 224 120
q225 0 225 -134q0 -66 -130 -157q60 -62 169 -98q98 -33 194 -33h66v-148z" />
    <glyph glyph-name="uFECB" unicode="&#x639;" horiz-adv-x="706" arabic-form="initial" 
d="M701 250l-40 -119l-349 -92q-144 -38 -269 -38h-69v148h107q30 0 97 10q-112 88 -112 174q0 76 93 193q108 135 229 135q125 0 207 -120q27 -40 27 -51q0 -8 -13 -8q-16 0 -58 11q-96 25 -162 25q-56 0 -129 -35q-84 -40 -84 -90q0 -41 66 -105q81 -78 179 -78
q31 0 265 64q18 5 20 5q1 -3 3 -6q-2 -4 -8 -23z" />
    <glyph glyph-name="uFECC" unicode="&#x639;" horiz-adv-x="719" arabic-form="medial" 
d="M745 1h-80q-191 0 -290 126q-115 -126 -297 -126h-104v148h126q129 0 191 52q-12 34 -47 75q-38 45 -68 53q-41 11 -41 27q0 9 9 30q51 120 219 120q213 0 213 -133q0 -59 -117 -161q28 -29 93 -48q52 -15 91 -15h102v-148z" />
    <glyph glyph-name="u063A" unicode="&#x63a;" horiz-adv-x="920" arabic-form="isolated" 
d="M1020 -436q-126 -132 -407 -132q-192 0 -316 87q-142 99 -142 283q0 277 294 446q-158 68 -158 192q0 100 93 206q99 112 208 112q123 0 193 -116q16 -26 16 -36q0 -7 -9 -7q-10 0 -35 9q-46 17 -158 17q-54 0 -131 -33q-89 -38 -89 -85q0 -58 84 -113q78 -51 140 -51
q47 0 271 73q29 9 35 10q5 0 5 -6q0 -7 -8 -31l-37 -112q-628 -134 -628 -404q0 -165 170 -242q124 -56 313 -56q177 0 277 31q39 12 49 12q8 0 8 -5q0 -9 -38 -49zM675 1086l-104 -104l-105 105l104 104z" />
    <glyph glyph-name="uFECE" unicode="&#x63a;" horiz-adv-x="1061" arabic-form="final" 
d="M1088 1h-53q-248 0 -424 165q-17 20 -53 60q-74 -41 -116 -70q-200 -138 -201 -290q-2 -296 478 -296q175 0 295 39q25 8 38 8q7 0 9 -5q0 -26 -73 -77q-59 -41 -97 -57q-111 -46 -262 -47q-205 -1 -328 77q-146 94 -146 289q0 216 199 390q47 41 137 100q-28 33 -43 49
q-45 49 -76 57q-42 11 -44 26q0 11 12 32q31 56 65 79q59 40 159 41q225 2 225 -134q0 -49 -64 -107q-15 -14 -66 -50q127 -131 363 -131h66v-148zM666 940l-104 -104l-105 105l104 104z" />
    <glyph glyph-name="uFECF" unicode="&#x63a;" horiz-adv-x="706" arabic-form="initial" 
d="M701 250l-40 -119q-153 -42 -306 -83q-181 -47 -312 -47h-69v148h107q73 0 97 10q-35 28 -56 52q-55 63 -56 122q-1 54 57 141q125 187 265 187q127 0 207 -120q28 -42 28 -50q0 -7 -14 -9q-23 0 -70 12q-59 15 -71 17q-40 6 -79 7q-54 1 -129 -35q-83 -40 -84 -90
q-1 -40 66 -105q79 -77 179 -78q46 0 163 34l102 30q6 2 20 4q3 0 3 -2q-1 -4 -8 -26zM463 1010l-104 -104l-104 105l104 104z" />
    <glyph glyph-name="uFED0" unicode="&#x63a;" horiz-adv-x="719" arabic-form="medial" 
d="M745 1h-80q-152 0 -261 93q-9 11 -29 33l-33 -33q-112 -93 -264 -93h-104v148h126q128 0 191 52q-12 34 -47 75q-38 45 -68 53q-39 10 -41 27q0 8 9 30q49 120 219 120q212 0 213 -133q1 -60 -117 -161q26 -26 86 -45q56 -18 98 -18h102v-148zM463 896l-104 -104
l-104 105l104 104z" />
    <glyph glyph-name="u0641" unicode="&#x641;" horiz-adv-x="1379" arabic-form="isolated" 
d="M1377 363v-23q0 -135 -42 -199q-103 -158 -711 -158q-467 0 -469 262q-1 127 70 232q15 22 28 22q10 0 11 -19q-3 -10 -23 -85q-8 -31 -8 -66q0 -132 180 -176q90 -22 282 -22q552 0 612 112q9 17 10 47q1 25 -5 41q-100 -17 -177 -17q-179 0 -180 149q-1 104 48 202
q60 119 154 119q85 0 148 -107q72 -122 72 -314zM1279 474q0 61 -42 111t-102 50q-99 0 -101 -96q-1 -80 123 -82q51 -1 122 17zM1219 1065l-104 -104l-105 105l104 104z" />
    <glyph glyph-name="uFED2" unicode="&#x641;" horiz-adv-x="1489" arabic-form="final" 
d="M1515 1h-81q-116 0 -257 77q-64 -27 -101 -40q-183 -63 -470 -63q-196 0 -294 38q-157 61 -157 221q0 129 70 231q14 21 29 21q10 0 11 -17q0 -9 -5 -24q-29 -80 -29 -123q-2 -135 169 -178q84 -21 277 -21q160 0 247 14q50 8 114 30q-65 61 -66 162q-1 89 67 189
q73 108 157 109q92 1 141 -93q39 -74 39 -176q0 -117 -82 -184q46 -25 164 -25h57v-148zM1307 330q0 40 -42 93.5t-81 53.5t-89.5 -48t-51.5 -87q-2 -77 143 -136q121 50 121 124zM1237 959l-104 -104l-105 105l104 104z" />
    <glyph glyph-name="uFED3" unicode="&#x641;" horiz-adv-x="521" arabic-form="initial" 
d="M522 363v-52q0 -126 -38 -181q-89 -129 -330 -129h-180v148h127q328 0 357 107q3 11 3 26q0 30 -11 49q-82 -17 -170 -17q-179 0 -180 149q-1 103 49 202q60 119 154 119q83 0 147 -107q72 -121 72 -314zM425 474q0 61 -42.5 111t-102.5 50q-43 0 -71 -27t-29 -69
q-1 -80 123 -82q54 -1 122 17zM373 1065l-103 -104l-105 105l104 104z" />
    <glyph glyph-name="uFED4" unicode="&#x641;" horiz-adv-x="692" arabic-form="medial" 
d="M719 1h-66q-62 0 -148 23q-95 25 -137 57q-43 -29 -115 -51q-93 -29 -186 -29h-93v148h60q150 0 197 22q-29 21 -50.5 65.5t-21.5 80.5q0 80 65 186q76 124 171 124q92 0 140 -99q37 -76 38 -179q1 -67 -32 -119q-18 -29 -55 -57q46 -24 182 -24h51v-148zM499 330
q0 46 -38 95q-40 53 -84 54q-43 1 -90.5 -43t-48.5 -87q-1 -47 46 -88q41 -36 91 -47q46 6 83 38q41 35 41 78zM462 959l-104 -104l-105 105l104 104z" />
    <glyph glyph-name="u0642" unicode="&#x642;" horiz-adv-x="1157" arabic-form="isolated" 
d="M1154 49q1 -23 3 -90q4 -144 -29 -213q-62 -130 -224 -199q-143 -61 -309 -61q-438 0 -440 332q0 76 33 177q27 81 67 133q19 24 33 25q11 0 12 -17q1 -15 -8 -34q-53 -115 -54 -209q-1 -126 111 -195q95 -58 229 -58q162 0 286 36q178 52 219 164q7 19 8 57
q1 40 -13 122q-72 -19 -173 -20q-184 -2 -184 149q0 101 51 201q62 121 152 122q84 1 150 -96q78 -115 80 -326zM1050 164q0 60 -45 108t-104 49q-40 1 -69.5 -26t-29.5 -66q0 -80 126 -82q58 -1 122 17zM1107 765l-98 -98l-100 99l99 99zM888 765l-99 -98l-99 99l98 99z
" />
    <glyph glyph-name="uFED6" unicode="&#x642;" horiz-adv-x="1263" arabic-form="final" 
d="M1290 1h-134v-28q0 -169 -28 -227q-64 -131 -228 -201q-139 -59 -305 -59q-438 0 -440 332q0 76 33 177q27 81 67 133q19 24 33 25q11 0 12 -17q1 -15 -8 -34q-53 -115 -54 -209q-1 -126 111 -195q95 -58 229 -58q162 0 286 36q179 52 219 164q7 19 8 56q1 30 -5 67
q-1 17 -6 38h-193q-166 0 -166 147q0 101 49 203q60 124 151 124q98 0 164 -120q50 -91 64 -206h141v-148zM1053 148q0 56 -50 118q-44 54 -102 55q-40 1 -67.5 -27t-28.5 -68q-1 -49 34 -66q26 -13 104 -13h65q5 0 16 1h29zM1107 765l-98 -98l-100 99l99 99zM888 765
l-99 -98l-99 99l98 99z" />
    <glyph glyph-name="uFED7" unicode="&#x642;" horiz-adv-x="521" arabic-form="initial" 
d="M522 363q0 -178 -38 -233q-89 -129 -330 -129h-180v148h127q329 0 357 107q12 45 -8 75q-74 -17 -170 -17q-180 0 -180 149q0 104 49 202q59 119 154 119q83 0 147 -108q72 -121 72 -313zM425 474q0 61 -42.5 111t-102.5 50q-42 0 -71 -27t-29 -69q0 -82 123 -82
q53 0 122 17zM491 1056l-99 -99l-100 100l99 99zM271 1056l-98 -99l-100 100l99 99z" />
    <glyph glyph-name="uFED8" unicode="&#x642;" horiz-adv-x="692" arabic-form="medial" 
d="M719 1h-66q-62 0 -148 23q-92 24 -137 57q-117 -80 -301 -80h-93v148h60q146 0 197 22q-72 56 -72 146q0 79 66 186q77 124 170 124q91 0 140 -99q38 -77 38 -179q0 -106 -87 -176q48 -24 182 -24h51v-148zM499 330q0 45 -39 97t-83 52q-41 0 -90 -44.5t-49 -85.5
q0 -45 47 -87q43 -39 90 -48q41 7 77 34q47 35 47 82zM563 950l-99 -98l-99 99l98 99zM344 950l-99 -98l-100 99l99 99z" />
    <glyph glyph-name="u0643" unicode="&#x643;" horiz-adv-x="1622" arabic-form="isolated" 
d="M1665 1185q-5 -33 -50 -147q-108 -33 -323 -101.5t-293 -115.5q151 -151 205 -220q105 -134 115 -250q9 -100 -26 -185q-70 -170 -402 -170h-267q-469 0 -469 266q0 96 62 197q16 26 31 26q12 0 12 -16q0 -10 -5 -22q-28 -69 -28 -111q0 -70 69 -120q99 -72 311 -72h286
q153 0 216 13q137 28 137 120q0 138 -209 327l-19 -28q-20 18 -69 80q-52 68 -52 82q0 35 14 97q16 69 33 89q12 14 264 108q279 104 457 153z" />
    <glyph glyph-name="uFEDA" unicode="&#x6a9;" horiz-adv-x="1735" arabic-form="final" 
d="M1761 1h-93q-97 0 -202 108q-56 57 -150 196q3 -132 -55 -198q-97 -111 -378 -111h-259q-469 0 -469 266q0 96 62 197q16 26 31 26q12 0 12 -16q0 -10 -5 -22q-28 -69 -28 -111q0 -70 69 -120q99 -72 311 -72h251q215 0 296 27q95 32 95 121q0 77 -89 186
q-52 64 -167 172q-89 84 -89 93q0 127 42 185q9 13 266 107q268 98 448 152q0 -28 -37 -143q-211 -65 -627 -220q185 -169 437 -497q91 -119 149 -152q45 -26 126 -26h53v-148z" />
    <glyph glyph-name="uFEDB" unicode="&#x6a9;" horiz-adv-x="765" arabic-form="initial" 
d="M819 1185q-5 -33 -49 -147l-323 -101q-217 -70 -294 -116q152 -151 206 -220q103 -132 114 -250q9 -95 -28 -185q-67 -165 -402 -165h-69v148h72q151 0 217 14q138 29 138 123q0 128 -210 318l-18 -28q-20 16 -69 80q-53 67 -53 82q0 36 14 97q16 68 34 89q12 14 264 108
q283 106 456 153z" />
    <glyph glyph-name="uFEDC" unicode="&#x6a9;" horiz-adv-x="880" arabic-form="medial" 
d="M906 1h-92q-99 0 -203 108q-51 53 -149 196q10 -304 -343 -304h-145v148h163q258 0 258 143q0 76 -90 186q-57 69 -166 171q-90 84 -90 93q0 128 43 186q9 13 251 102q254 94 459 156q0 -28 -33 -142q-243 -80 -626 -225q178 -157 436 -492q91 -118 148 -152
q44 -26 127 -26h52v-148z" />
    <glyph glyph-name="u06AF" unicode="&#x6af;" horiz-adv-x="1625" arabic-form="isolated" 
d="M1641 1229l-26 -95l-627 -201l27 92zM1668 1038q-5 -33 -40 -141q-232 -58 -565 -172q237 -226 258 -376q15 -107 -25 -191q-43 -92 -140 -128q-90 -34 -265 -34h-267q-469 0 -469 266q0 96 62 197q16 26 31 26q12 0 12 -16q0 -10 -5 -22q-28 -69 -28 -111q0 -70 69 -120
q99 -72 311 -72h286q154 0 220 13q142 28 142 118q0 102 -200 294l-17 -32q-21 17 -69 75q-52 63 -52 78q0 65 48 118q11 12 255 93q259 86 448 137z" />
    <glyph glyph-name="uFB93" unicode="&#x6af;" horiz-adv-x="1735" arabic-form="final" 
d="M1629 1233l-27 -95l-626 -201l26 93zM1762 1h-76q-102 0 -204 90q-71 63 -169 200q4 -174 -132 -244q-98 -51 -290 -51h-267q-469 0 -469 266q0 96 62 197q16 26 31 26q12 0 12 -16q0 -10 -5 -22q-28 -69 -28 -111q0 -70 69 -120q99 -72 311 -72h251q391 0 391 148
q0 109 -168 267q-72 68 -168 135q0 82 40 123q17 17 704 225q-3 -25 -42 -138q-168 -44 -569 -171q207 -215 349 -381q88 -103 135 -139q83 -64 178 -64h54v-148z" />
    <glyph glyph-name="uFB94" unicode="&#x6af;" horiz-adv-x="765" arabic-form="initial" 
d="M769 1229l-26 -95l-627 -201l27 92zM796 1038q-5 -33 -40 -141q-232 -58 -565 -172q237 -226 258 -376q14 -105 -24 -189q-42 -93 -136 -128q-83 -31 -260 -31h-55v148h44q365 0 365 126q0 102 -200 294l-17 -32q-21 17 -69 75q-52 63 -52 78q0 65 48 118q11 12 255 93
q259 86 448 137z" />
    <glyph glyph-name="uFB95" unicode="&#x6af;" horiz-adv-x="866" arabic-form="medial" 
d="M761 1233l-26 -95l-627 -201l27 93zM892 1h-74q-101 0 -203 90q-71 63 -169 200q-17 -290 -400 -290h-72v148h52q355 0 355 143q0 109 -168 267q-72 68 -168 135q0 82 40 123q16 16 704 225q-2 -25 -42 -138q-168 -44 -568 -171q200 -208 349 -381q87 -101 135 -138
q84 -65 177 -65h52v-148z" />
    <glyph glyph-name="u0644" unicode="&#x644;" horiz-adv-x="1102" arabic-form="isolated" 
d="M1094 1008q9 -21 6 -24q-2 -4 -24 -4h-43q40 -739 26 -1026q-22 -453 -529 -453q-164 0 -262 69q-113 79 -113 237q0 160 88 284q11 15 23 15q16 0 16 -19q0 -8 -4 -18q-42 -105 -42 -176q0 -121 89 -187q79 -59 204 -59q185 0 319 69q119 61 119 126q0 832 -56 1248
l89 82q16 15 21 16q5 -3 11 -23q16 -51 62 -157z" />
    <glyph glyph-name="uFEDE" unicode="&#x644;" horiz-adv-x="1228" arabic-form="final" 
d="M1254 1h-61q-99 0 -139 57q-5 -116 -31 -285q-54 -139 -202 -211q-128 -63 -292 -63t-262 70q-112 80 -112 238q0 160 88 284q11 15 23 15q16 0 16 -19q0 -8 -4 -18q-42 -105 -42 -176q0 -121 89 -187q79 -59 204 -59q124 0 261 45q183 60 180 159l-16 614
q-11 435 -29 643l102 89q6 -56 20 -429l19 -495q5 -124 155 -124h33v-148z" />
    <glyph glyph-name="uFEDF" unicode="&#x644;" horiz-adv-x="328" arabic-form="initial" 
d="M320 1017q11 -26 8 -31q-2 -3 -21 -3h-41q13 -256 8 -724q-1 -113 -55 -182q-60 -76 -170 -76h-75v148h68q151 0 146 115q-17 412 -43 835l85 81q20 19 24 20q4 -4 10 -27q15 -58 56 -156z" />
    <glyph glyph-name="uFEE0" unicode="&#x644;" horiz-adv-x="473" arabic-form="medial" 
d="M499 1h-52q-166 0 -229 122q-17 -55 -78 -90q-55 -32 -117 -32h-49v148h51q159 0 159 133v443q0 253 -11 388l109 92v-861q0 -195 166 -195h51v-148z" />
    <glyph glyph-name="u0645" unicode="&#x645;" horiz-adv-x="819" arabic-form="isolated" 
d="M817 254q0 -32 -40 -102q-43 -74 -70 -74q-52 0 -155 19.5t-155 19.5q-102 0 -147 -21q33 -332 33 -485q0 -68 -51 -167q-11 -22 -16 -23q-5 0 -6 19q-20 303 -55 620q-4 36 37 93q33 46 60 65q41 29 96 29q-14 54 -14 87q0 63 49 135q57 83 130 83q88 0 196 -105.5
t108 -192.5zM715 211q-26 66 -92 129q-74 70 -137 70q-88 0 -88 -66q0 -37 20 -97q128 0 297 -36z" />
    <glyph glyph-name="uFEE2" unicode="&#x645;" horiz-adv-x="1031" arabic-form="final" 
d="M1057 1h-61q-117 0 -179 52q8 -27 8 -70q0 -200 -133 -200q-109 0 -174 120q-53 98 -53 218q0 26 3 50q-19 3 -39 3q-125 0 -182 -65q40 -311 40 -463q0 -74 -39 -178q-14 -37 -21 -37t-12 49l-60 594q-4 38 43 105q42 59 80 87q27 20 97 35q62 14 104 14q11 0 20 -1
l19 82q6 25 12 25q6 -2 20 -14q154 -138 223 -184q112 -74 209 -74h75v-148zM767 9q0 53 -79 125q-13 12 -144 125q-5 -38 -5 -73q0 -89 32 -157q41 -88 121 -88q75 0 75 68z" />
    <glyph glyph-name="uFEE3" unicode="&#x645;" horiz-adv-x="662" arabic-form="initial" 
d="M661 255q8 -95 -22 -160q-46 -99 -102 -99q-102 0 -290 131q-58 -69 -81 -87q-50 -39 -123 -39h-69v148h91q86 0 151 88q32 46 115 163q63 88 129 88q93 0 152 -94q43 -69 49 -139zM585 161q0 56 -42 122q-47 74 -103 74q-57 0 -134 -117q32 -35 117 -73.5t132 -38.5
q30 0 30 33z" />
    <glyph glyph-name="uFEE4" unicode="&#x645;" horiz-adv-x="916" arabic-form="medial" 
d="M943 1h-83q-90 0 -185 106q-53 -158 -120 -158q-62 0 -173 63q-99 56 -139 101q-90 -112 -191 -112h-78v148h82q88 0 170 74q51 58 124 137q68 74 127 74q73 0 133 -74q30 -38 109 -137q61 -74 141 -74h83v-148zM598 107q6 58 -33 125q-44 76 -109 76q-66 0 -142 -98
q21 -27 109 -73q95 -50 153 -52q20 -1 22 22z" />
    <glyph glyph-name="u0646" unicode="&#x646;" horiz-adv-x="1118" arabic-form="isolated" 
d="M1105 19q11 -67 11 -112q0 -72 -24 -140q-50 -143 -225 -222q-146 -66 -318 -66q-168 0 -276 83q-118 92 -118 256q0 87 43 186q31 71 64 111q16 19 29 19q12 0 12 -14q0 -9 -6 -21q-57 -117 -57 -214q0 -95 63 -164q83 -91 251 -91q190 0 336 68q120 56 150 122
q10 22 10 55q0 51 -26 125q-22 62 -120 201l52 104q12 23 18 23t18 -19q88 -137 113 -290zM728 573l-104 -104l-105 105l104 104z" />
    <glyph glyph-name="uFEE6" unicode="&#x646;" horiz-adv-x="1266" arabic-form="final" 
d="M1293 1h-64q-94 0 -124 18q7 -52 7 -107q0 -88 -20 -145q-50 -143 -225 -222q-146 -66 -318 -66q-168 0 -276 83q-118 92 -118 256q0 87 43 186q31 71 64 111q16 19 29 19q12 0 12 -14q0 -9 -6 -21q-57 -117 -57 -214q0 -95 63 -164q83 -91 251 -91q190 0 336 68
q120 56 150 122q10 21 3 85q-6 62 -19 95q-25 64 -125 190l57 106q12 23 18 23t18 -19q98 -151 202 -151h99v-148zM728 573l-104 -104l-105 105l104 104z" />
    <glyph glyph-name="uFEE7" unicode="&#x646;" horiz-adv-x="333" arabic-form="initial" 
d="M332 255q0 -254 -253 -254h-105v148h87q191 0 191 69q0 48 -87 159l52 126q8 19 13 19t21 -23q81 -119 81 -244zM322 838l-104 -104l-104 105l104 104z" />
    <glyph glyph-name="uFEE8" unicode="&#x646;" horiz-adv-x="630" arabic-form="medial" 
d="M656 1h-98q-177 0 -237 116q-66 -116 -264 -116h-83v148h114q187 0 204 145q7 58 29 58t28 -60q13 -143 194 -143h113v-148zM402 662l-104 -104l-105 104l104 104z" />
    <glyph glyph-name="u0648" unicode="&#x648;" horiz-adv-x="659" arabic-form="isolated" 
d="M658 52q0 -286 -197 -490q-62 -64 -79 -64q-109 0 -249 22q-49 8 -49 15q0 8 52 23q155 45 289 160q56 48 102 113q58 81 58 136v42l-167 -6q-177 -6 -177 147q0 95 55 204q63 124 144 124q120 0 178 -165q40 -114 40 -261zM566 158q0 62 -42 117q-45 60 -105 60
q-40 0 -69.5 -30t-29.5 -70q0 -88 126 -88q47 0 120 11z" />
    <glyph glyph-name="uFEEE" unicode="&#x648;" horiz-adv-x="768" arabic-form="final" 
d="M795 1h-139q-18 -261 -201 -445q-58 -58 -73 -58q-105 0 -249 22q-47 7 -47 15t50 23q158 46 289 160q56 49 102 113q58 81 58 136v34h-160q-184 0 -184 149q0 95 55 204q63 124 144 124q99 0 159 -122q44 -89 55 -207h141v-148zM566 151q0 58 -41 117q-46 67 -106 67
q-39 0 -70 -31.5t-31 -70.5q0 -87 149 -87q39 0 99 5z" />
    <glyph glyph-name="u0647" unicode="&#x647;" horiz-adv-x="641" arabic-form="isolated" 
d="M640 270q0 -131 -81 -204q-78 -69 -210 -69q-81 0 -136 49q-58 51 -58 131q0 89 76 221q66 114 146 194q263 -137 263 -322zM567 218q0 53 -85 133q-76 71 -135 93q-100 -127 -100 -203q0 -45 47 -73q40 -24 88 -24q83 0 140 31q45 24 45 43z" />
    <glyph glyph-name="uFEEA" unicode="&#x647;" horiz-adv-x="850" arabic-form="final" 
d="M876 1h-95q-164 0 -208 204q-90 -89 -104 -89h-113q-60 0 -119 18q-82 25 -82 70q0 144 102 234q68 60 235 126l-25 123l86 97q5 -16 87 -419q25 -123 46 -160q32 -56 101 -56h89v-148zM557 262l-43 203q-65 -19 -155 -63q-123 -60 -123 -95q0 -29 94 -45q66 -11 117 -11
q63 0 110 11z" />
    <glyph glyph-name="uFEEB" unicode="&#x647;" horiz-adv-x="808" arabic-form="initial" 
d="M807 262q0 -71 -48 -150q-57 -93 -134 -93q-60 0 -274 88q-167 -106 -307 -106h-70v148h75q85 0 152 18q-79 56 -79 152q0 124 167 252l-85 42q37 37 110 113q180 -87 305 -185q188 -148 188 -279zM739 212q0 52 -79 128q-64 62 -117 89q0 -152 -88 -226q158 -52 206 -52
q78 0 78 61zM470 363q0 49 -22 90q-26 49 -71 49q-50 0 -107 -43q-60 -45 -60 -93q0 -84 139 -125q44 10 80 43q41 37 41 79z" />
    <glyph glyph-name="uFEEC" unicode="&#x647;" horiz-adv-x="795" arabic-form="medial" 
d="M822 1h-66q-76 0 -143 -25q-104 -39 -104 -131q0 -112 153 -208l-59 -134q-179 64 -297 179q-144 140 -156 319h-176v148h169q0 146 79 329q74 172 118 172q45 0 105 -162q54 -146 54 -208q0 -271 -263 -275q16 -83 77 -159t138 -114q-3 27 -3 53q0 135 65 229
q93 135 254 135h55v-148zM432 208q0 38 -43 140q-46 108 -74 108q-26 0 -61 -94q-39 -104 -39 -212q217 0 217 58z" />
    <glyph glyph-name="u0629" unicode="&#x629;" horiz-adv-x="641" arabic-form="isolated" 
d="M640 270q0 -131 -81 -204q-78 -69 -210 -69q-81 0 -136 49q-58 51 -58 131q0 89 76 221q66 114 146 194q263 -137 263 -322zM567 218q0 53 -85 133q-76 71 -135 93q-100 -127 -100 -203q0 -45 47 -73q40 -24 88 -24q83 0 140 31q45 24 45 43zM521 826l-16 -63
q-141 -27 -287 -80v47q24 15 83 48q-81 52 -81 93q0 38 53 100q59 69 111 69q68 0 99 -63q9 -19 2 -28t-27 -1q-31 12 -83 12q-22 0 -48 -13q-31 -15 -31 -34q0 -38 51 -63q42 -22 83 -22q33 0 70 10q18 5 21 3t0 -15z" />
    <glyph glyph-name="uFE94" unicode="&#x6c0;" horiz-adv-x="850" arabic-form="final" 
d="M876 1h-95q-164 0 -208 204q-90 -89 -104 -89h-113q-60 0 -119 18q-82 25 -82 70q0 144 102 234q68 60 235 126l-25 123l86 97q5 -16 87 -419q25 -123 46 -160q32 -56 101 -56h89v-148zM557 262l-43 203q-65 -19 -155 -63q-123 -60 -123 -95q0 -29 94 -45q66 -11 117 -11
q63 0 110 11zM591 966l-16 -63q-141 -27 -287 -80v47q24 15 83 48q-81 52 -81 93q0 38 53 100q59 69 111 69q69 0 99 -63q9 -19 2 -28t-27 -1q-31 12 -83 12q-22 0 -48 -13q-31 -15 -31 -34q0 -38 51 -63q42 -22 83 -22q33 0 70 10q18 5 21 3t0 -15z" />
    <glyph glyph-name="u064A" unicode="&#x64a;" horiz-adv-x="1326" arabic-form="isolated" 
d="M1319 469q8 -36 3 -41q-4 -5 -32 11q-59 33 -150 33q-126 0 -234 -107q-89 -89 -89 -141q0 -62 178 -94q195 -36 228 -94q7 -12 7 -39q0 -105 -67 -212q-44 -71 -192 -130q-183 -73 -419 -73q-166 0 -276 85q-121 94 -121 255q0 179 117 333q18 23 35 28q16 4 16 -12
q0 -12 -11 -32q-75 -138 -75 -257q0 -87 65 -157q89 -95 264 -95q156 0 329 39q250 56 250 157q0 38 -245 85q-91 18 -124 37q-47 28 -47 95q0 125 130 293q140 181 277 181q149 0 183 -148z" />
    <glyph glyph-name="uFEF2" unicode="&#x6cc;" horiz-adv-x="1277" arabic-form="final" 
d="M1304 1h-292q-54 0 -104 -17q-69 -23 -69 -65q0 -10 184.5 -51t184.5 -81q0 -151 -87 -225q-147 -126 -518 -126q-448 0 -448 331q0 75 32 166.5t78 151.5q18 24 33 25t15 -16q0 -15 -12 -38q-58 -110 -58 -228q0 -131 124 -194q95 -48 241 -48q155 0 284 16
q232 29 232 99q0 29 -101 46q-161 27 -186 34q-101 28 -101 86q0 46 49 115q41 57 86 94q90 73 256 73h177v-148z" />
    <glyph glyph-name="uFEF3" unicode="&#x6cc;" horiz-adv-x="455" arabic-form="initial" 
d="M332 255q0 -254 -253 -254h-105v148h87q191 0 191 69q0 48 -87 159l52 126q8 19 13 19t21 -23q81 -119 81 -244zM450 -281l-99 -99l-99 100l99 99zM231 -281l-99 -99l-99 100l98 99z" />
    <glyph glyph-name="uFEF4" unicode="&#x6cc;" horiz-adv-x="630" arabic-form="medial" 
d="M656 1h-98q-177 0 -237 116q-66 -116 -264 -116h-83v148h114q187 0 204 145q7 58 29 58t28 -60q13 -143 194 -143h113v-148zM454 -281l-99 -99l-100 100l99 99zM234 -281l-98 -99l-100 100l99 99z" />
    <glyph glyph-name="u0649" unicode="&#x649;" horiz-adv-x="1326" arabic-form="isolated" 
d="M1319 469q8 -36 3 -41q-4 -5 -32 11q-59 33 -150 33q-126 0 -234 -107q-89 -89 -89 -141q0 -62 178 -94q195 -36 228 -94q7 -12 7 -39q0 -105 -67 -212q-44 -71 -192 -130q-183 -73 -419 -73q-166 0 -276 85q-121 94 -121 255q0 179 117 333q18 23 35 28q16 4 16 -12
q0 -12 -11 -32q-75 -138 -75 -257q0 -87 65 -157q89 -95 264 -95q156 0 329 39q250 56 250 157q0 38 -245 85q-91 18 -124 37q-47 28 -47 95q0 125 130 293q140 181 277 181q149 0 183 -148z" />
    <glyph glyph-name="uFEF0" unicode="&#x649;" horiz-adv-x="1277" arabic-form="final" 
d="M1304 1h-292q-54 0 -104 -17q-69 -23 -69 -65q0 -10 184.5 -51t184.5 -81q0 -151 -87 -225q-147 -126 -518 -126q-448 0 -448 331q0 75 32 166.5t78 151.5q18 24 33 25t15 -16q0 -15 -12 -38q-58 -110 -58 -228q0 -131 124 -194q95 -48 241 -48q155 0 284 16
q232 29 232 99q0 29 -101 46q-161 27 -186 34q-101 28 -101 86q0 46 49 115q41 57 86 94q90 73 256 73h177v-148z" />
    <glyph glyph-name=".notdef" horiz-adv-x="1024" 
d="M128 0v1343h768v-1343h-768zM256 128h512v1087h-512v-1087z" />
    <glyph glyph-name=".null" 
 />
    <glyph glyph-name="nonmarkingreturn" horiz-adv-x="500" 
 />
    <glyph glyph-name="space" unicode=" " horiz-adv-x="500" 
 />
    <glyph glyph-name="exclam" unicode="!" horiz-adv-x="333" 
d="M328 940q0 -60 -24 -219q-26 -170 -31 -251q-9 -141 -12 -236h-35q-3 81 -12 207l-2 28q-4 60 -34 256q-24 158 -24 218q0 212 87 212t87 -215zM330 81q0 -35 -25 -59t-60 -24q-34 0 -58.5 24.5t-24.5 58.5q0 35 24 59.5t59 24.5t60 -24.5t25 -59.5z" />
    <glyph glyph-name="percent" unicode="%" horiz-adv-x="894" 
d="M231 1024q0 -81 -82 -81q-34 0 -57 23.5t-23 57.5q0 33 23.5 56.5t56.5 23.5q34 0 58 -23t24 -57zM714 1196l-462 -1318l-56 20l465 1318zM819 70q0 -34 -23 -57.5t-57 -23.5t-57.5 23.5t-23.5 57.5t23.5 57.5t57.5 23.5t57 -23.5t23 -57.5z" />
    <glyph glyph-name="parenleft" unicode="(" horiz-adv-x="576" 
d="M573 1036q-14 -23 -71 -104q-203 -289 -203 -524q0 -192 103 -382q34 -63 166 -242q6 -8 6 -17q0 -23 -31 -23q-27 0 -117 88q-109 106 -178 233q-92 169 -92 338q0 193 110 372q101 163 272 280q13 9 24 4t11 -23z" />
    <glyph glyph-name="parenright" unicode=")" horiz-adv-x="576" 
d="M156 -233q10 18 71 104q204 288 204 525q0 193 -103 381q-34 62 -167 242q-6 8 -6 17q0 24 32 24q27 0 116 -88q109 -108 178 -234q92 -169 92 -338q0 -196 -109 -372q-100 -162 -273 -280q-12 -8 -23 -3q-12 5 -12 22z" />
    <glyph glyph-name="asterisk" unicode="*" horiz-adv-x="1045" 
d="M917 610q-81 -76 -212 -108q-4 -1 -10 -1q-3 0 -4 1q-3 2 0 13q39 141 109 208q24 23 55 23q34 0 58 -24.5t24 -58.5t-20 -53zM681 777q0 -108 -74 -228q-5 -11 -10 -11q-5 2 -10 11q-69 121 -69 224q0 78 83 78q30 0 55 -22.5t25 -51.5zM1043 405q0 -29 -22.5 -54
t-51.5 -25q-109 0 -229 73q-9 7 -9 10q0 5 9 10q121 69 225 69q78 0 78 -83zM681 407q0 -33 -24.5 -56.5t-57.5 -23.5t-57 23.5t-24 56.5q0 34 23.5 57.5t57.5 23.5t58 -23.5t24 -57.5zM914 206q24 -25 24 -56q0 -33 -25 -57t-58 -24q-34 0 -53 20q-75 80 -109 212
q-3 11 0 15q4 3 14 0q139 -39 207 -110zM505 499q-3 -3 -14 0q-138 38 -208 110q-23 24 -23 55q0 34 24.5 57.5t58.5 23.5q35 0 53 -19q74 -76 109 -213q3 -11 0 -14zM468 405q-2 -5 -11 -10q-119 -68 -224 -68q-78 0 -78 82q0 30 22.5 55t51.5 25q108 0 228 -74
q10 -6 11 -10zM680 42q0 -79 -83 -79q-29 0 -54.5 23t-25.5 52q0 107 74 228q6 10 10 10q5 -1 10 -10q69 -122 69 -224zM508 299q-39 -137 -111 -207q-24 -23 -55 -23q-34 0 -57 24t-23 58q0 51 86 101q72 42 146 61q11 3 14 0q1 -4 0 -14z" />
    <glyph glyph-name="plus" unicode="+" horiz-adv-x="767" 
d="M707 342h-287v-287h-76v287h-289v76h289v288h76v-288h287v-76z" />
    <glyph glyph-name="comma" unicode="," horiz-adv-x="418" 
d="M159 105q0 33 28 65q36 41 94 41q66 0 103 -49q34 -45 34 -113q0 -168 -140 -243q-19 -10 -46 -11q-28 -1 -28 11q4 6 30 29q84 74 84 177q-33 -10 -61 -10q-98 0 -98 103z" />
    <glyph glyph-name="hyphen" unicode="-" horiz-adv-x="767" 
d="M707 342h-652v76h652v-76z" />
    <glyph glyph-name="period" unicode="." horiz-adv-x="334" 
d="M333 91q0 -36 -26.5 -62t-62.5 -26t-62.5 26t-26.5 62t26.5 62.5t62.5 26.5t62.5 -26.5t26.5 -62.5z" />
    <glyph glyph-name="slash" unicode="/" horiz-adv-x="423" 
d="M378 1119l-266 -1212h-69l267 1212h68z" />
    <glyph glyph-name="zero" unicode="0" horiz-adv-x="960" 
d="M632 491l-175 -175l-173 174l174 174z" />
    <glyph glyph-name="zero" unicode="&#x6f0;" horiz-adv-x="960" 
d="M632 491l-175 -175l-173 174l174 174z" />
    <glyph glyph-name="zero" unicode="&#x660;" horiz-adv-x="960" 
d="M632 491l-175 -175l-173 174l174 174z" />
    <glyph glyph-name="one" unicode="1" horiz-adv-x="960" 
d="M636 248q0 -281 -62 -281q-30 0 -36 103v128q-5 129 -48 290q-77 288 -215 499l102 160q100 -147 174 -383q85 -271 85 -516z" />
    <glyph glyph-name="one" unicode="&#x6f1;" horiz-adv-x="960" 
d="M636 248q0 -281 -62 -281q-30 0 -36 103v128q-5 129 -48 290q-77 288 -215 499l102 160q100 -147 174 -383q85 -271 85 -516z" />
    <glyph glyph-name="one" unicode="&#x661;" horiz-adv-x="960" 
d="M636 248q0 -281 -62 -281q-30 0 -36 103v128q-5 129 -48 290q-77 288 -215 499l102 160q100 -147 174 -383q85 -271 85 -516z" />
    <glyph glyph-name="two" unicode="2" horiz-adv-x="960" 
d="M805 1106q0 -143 -84 -236q-87 -95 -229 -95q-47 0 -98 11q53 -113 93 -268q47 -184 47 -339q0 -212 -56 -212q-23 0 -30 65l-21 196q-14 130 -83 323q-82 229 -226 432l93 159q71 -100 108 -133q71 -63 163 -63q186 0 257 166q19 44 41 44q25 0 25 -50z" />
    <glyph glyph-name="two" unicode="&#x6f2;" horiz-adv-x="960" 
d="M805 1106q0 -143 -84 -236q-87 -95 -229 -95q-47 0 -98 11q53 -113 93 -268q47 -184 47 -339q0 -212 -56 -212q-23 0 -30 65l-21 196q-14 130 -83 323q-82 229 -226 432l93 159q71 -100 108 -133q71 -63 163 -63q186 0 257 166q19 44 41 44q25 0 25 -50z" />
    <glyph glyph-name="two" unicode="&#x662;" horiz-adv-x="960" 
d="M805 1106q0 -143 -84 -236q-87 -95 -229 -95q-47 0 -98 11q53 -113 93 -268q47 -184 47 -339q0 -212 -56 -212q-23 0 -30 65l-21 196q-14 130 -83 323q-82 229 -226 432l93 159q71 -100 108 -133q71 -63 163 -63q186 0 257 166q19 44 41 44q25 0 25 -50z" />
    <glyph glyph-name="three" unicode="3" horiz-adv-x="960" 
d="M876 1101q0 -303 -189 -303q-38 0 -78.5 23t-57.5 56q-15 -46 -65 -75q-46 -26 -98 -26q-28 0 -52 8q43 -79 83 -233q48 -185 48 -338q0 -144 -2 -165q-8 -82 -46 -82q-21 0 -37 115l-16 138q-19 133 -74 294q-91 265 -239 459l95 168q92 -132 95 -134q57 -62 138 -62
q67 0 101 56q16 27 39 109q11 40 33 40q25 0 31 -53q7 -65 24 -92q27 -43 90 -43q62 0 89 52q11 21 27 92q11 48 37 48q24 0 24 -52z" />
    <glyph glyph-name="three" unicode="&#x6f3;" horiz-adv-x="960" 
d="M876 1101q0 -303 -189 -303q-38 0 -78.5 23t-57.5 56q-15 -46 -65 -75q-46 -26 -98 -26q-28 0 -52 8q43 -79 83 -233q48 -185 48 -338q0 -144 -2 -165q-8 -82 -46 -82q-21 0 -37 115l-16 138q-19 133 -74 294q-91 265 -239 459l95 168q92 -132 95 -134q57 -62 138 -62
q67 0 101 56q16 27 39 109q11 40 33 40q25 0 31 -53q7 -65 24 -92q27 -43 90 -43q62 0 89 52q11 21 27 92q11 48 37 48q24 0 24 -52z" />
    <glyph glyph-name="three" unicode="&#x663;" horiz-adv-x="960" 
d="M876 1101q0 -303 -189 -303q-38 0 -78.5 23t-57.5 56q-15 -46 -65 -75q-46 -26 -98 -26q-28 0 -52 8q43 -79 83 -233q48 -185 48 -338q0 -144 -2 -165q-8 -82 -46 -82q-21 0 -37 115l-16 138q-19 133 -74 294q-91 265 -239 459l95 168q92 -132 95 -134q57 -62 138 -62
q67 0 101 56q16 27 39 109q11 40 33 40q25 0 31 -53q7 -65 24 -92q27 -43 90 -43q62 0 89 52q11 21 27 92q11 48 37 48q24 0 24 -52z" />
    <glyph glyph-name="four" unicode="4" horiz-adv-x="960" 
d="M853 840q0 -51 -74 -104q-82 -59 -184 -59q-118 0 -190 49q42 -71 76 -207q39 -157 39 -306q0 -144 -2 -165q-8 -82 -46 -82q-22 0 -30 66q-6 52 -23 187q-18 129 -74 294q-88 260 -239 459l95 168q52 -77 157 -208q6 111 77 183t181 72q64 0 121 -39q45 -31 58 -61
q6 -15 -2.5 -22.5t-23.5 -2.5q-57 18 -140 18q-67 0 -111 -37.5t-44 -103.5q0 -11 2 -19q11 -45 64 -73q46 -24 98 -26q94 -3 157 34q24 14 38 14q20 0 20 -29z" />
    <glyph glyph-name="four" unicode="&#x6f4;" horiz-adv-x="960" 
d="M853 840q0 -51 -74 -104q-82 -59 -184 -59q-118 0 -190 49q42 -71 76 -207q39 -157 39 -306q0 -144 -2 -165q-8 -82 -46 -82q-22 0 -30 66q-6 52 -23 187q-18 129 -74 294q-88 260 -239 459l95 168q52 -77 157 -208q6 111 77 183t181 72q64 0 121 -39q45 -31 58 -61
q6 -15 -2.5 -22.5t-23.5 -2.5q-57 18 -140 18q-67 0 -111 -37.5t-44 -103.5q0 -11 2 -19q11 -45 64 -73q46 -24 98 -26q94 -3 157 34q24 14 38 14q20 0 20 -29z" />
    <glyph glyph-name="four" unicode="&#x664;" horiz-adv-x="960" 
d="M853 840q0 -51 -74 -104q-82 -59 -184 -59q-118 0 -190 49q42 -71 76 -207q39 -157 39 -306q0 -144 -2 -165q-8 -82 -46 -82q-22 0 -30 66q-6 52 -23 187q-18 129 -74 294q-88 260 -239 459l95 168q52 -77 157 -208q6 111 77 183t181 72q64 0 121 -39q45 -31 58 -61
q6 -15 -2.5 -22.5t-23.5 -2.5q-57 18 -140 18q-67 0 -111 -37.5t-44 -103.5q0 -11 2 -19q11 -45 64 -73q46 -24 98 -26q94 -3 157 34q24 14 38 14q20 0 20 -29z" />
    <glyph glyph-name="five" unicode="5" horiz-adv-x="960" 
d="M852 250q0 -94 -53 -177q-62 -97 -155 -97q-108 0 -165 104q-63 -119 -187 -119q-91 0 -144 76q-48 67 -48 162q0 255 279 745l-38 46l79 164q155 -177 276 -381q156 -263 156 -422v-101zM775 260q0 126 -158 372q-99 154 -194 266q-69 -127 -138 -299q-87 -217 -87 -310
q0 -61 26 -103q30 -50 87 -50q131 0 145 124q4 38 29 38q24 0 31 -37q24 -120 141 -120q52 0 85 33.5t33 85.5z" />
    <glyph glyph-name="five" unicode="&#x6f5;" horiz-adv-x="960" 
d="M852 250q0 -94 -53 -177q-62 -97 -155 -97q-108 0 -165 104q-63 -119 -187 -119q-91 0 -144 76q-48 67 -48 162q0 255 279 745l-38 46l79 164q155 -177 276 -381q156 -263 156 -422v-101zM775 260q0 126 -158 372q-99 154 -194 266q-69 -127 -138 -299q-87 -217 -87 -310
q0 -61 26 -103q30 -50 87 -50q131 0 145 124q4 38 29 38q24 0 31 -37q24 -120 141 -120q52 0 85 33.5t33 85.5z" />
    <glyph glyph-name="five" unicode="&#x665;" horiz-adv-x="960" 
d="M852 250q0 -94 -53 -177q-62 -97 -155 -97q-108 0 -165 104q-63 -119 -187 -119q-91 0 -144 76q-48 67 -48 162q0 255 279 745l-38 46l79 164q155 -177 276 -381q156 -263 156 -422v-101zM775 260q0 126 -158 372q-99 154 -194 266q-69 -127 -138 -299q-87 -217 -87 -310
q0 -61 26 -103q30 -50 87 -50q131 0 145 124q4 38 29 38q24 0 31 -37q24 -120 141 -120q52 0 85 33.5t33 85.5z" />
    <glyph glyph-name="six" unicode="6" horiz-adv-x="888" 
d="M824 811l-68 -195q-407 -136 -622 -618q-14 -31 -31 -31q-23 0 -19 38q14 132 97 302q75 153 176 244q-234 30 -234 224q0 95 115 229q127 148 245 148q62 0 127 -42q70 -46 80 -104q3 -15 -6.5 -23.5t-24.5 -4.5q-97 26 -179 26q-80 0 -150 -45q-79 -51 -79 -127
q0 -127 220 -127q57 0 158 47q32 15 157 76q24 12 34 6t4 -23z" />
    <glyph glyph-name="six" unicode="&#x6f6;" horiz-adv-x="888" 
d="M824 811l-68 -195q-407 -136 -622 -618q-14 -31 -31 -31q-23 0 -19 38q14 132 97 302q75 153 176 244q-234 30 -234 224q0 95 115 229q127 148 245 148q62 0 127 -42q70 -46 80 -104q3 -15 -6.5 -23.5t-24.5 -4.5q-97 26 -179 26q-80 0 -150 -45q-79 -51 -79 -127
q0 -127 220 -127q57 0 158 47q32 15 157 76q24 12 34 6t4 -23z" />
    <glyph glyph-name="six" unicode="&#x666;" horiz-adv-x="888" 
d="M824 811l-68 -195q-407 -136 -622 -618q-14 -31 -31 -31q-23 0 -19 38q14 132 97 302q75 153 176 244q-234 30 -234 224q0 95 115 229q127 148 245 148q62 0 127 -42q70 -46 80 -104q3 -15 -6.5 -23.5t-24.5 -4.5q-97 26 -179 26q-80 0 -150 -45q-79 -51 -79 -127
q0 -127 220 -127q57 0 158 47q32 15 157 76q24 12 34 6t4 -23z" />
    <glyph glyph-name="seven" unicode="7" horiz-adv-x="960" 
d="M876 983q-45 -55 -90 -130q-104 -174 -166 -365q-44 -138 -82 -374q-24 -149 -53 -149q-25 0 -49 142q-38 225 -91 385q-106 318 -269 477l55 161q9 25 13 26q5 0 23 -21q122 -139 223 -422q87 -244 96 -386q21 180 87 384q92 284 226 436q15 17 20 18q5 -3 11 -23z" />
    <glyph glyph-name="seven" unicode="&#x6f7;" horiz-adv-x="960" 
d="M876 983q-45 -55 -90 -130q-104 -174 -166 -365q-44 -138 -82 -374q-24 -149 -53 -149q-25 0 -49 142q-38 225 -91 385q-106 318 -269 477l55 161q9 25 13 26q5 0 23 -21q122 -139 223 -422q87 -244 96 -386q21 180 87 384q92 284 226 436q15 17 20 18q5 -3 11 -23z" />
    <glyph glyph-name="seven" unicode="&#x667;" horiz-adv-x="960" 
d="M876 983q-45 -55 -90 -130q-104 -174 -166 -365q-44 -138 -82 -374q-24 -149 -53 -149q-25 0 -49 142q-38 225 -91 385q-106 318 -269 477l55 161q9 25 13 26q5 0 23 -21q122 -139 223 -422q87 -244 96 -386q21 180 87 384q92 284 226 436q15 17 20 18q5 -3 11 -23z" />
    <glyph glyph-name="eight" unicode="8" horiz-adv-x="960" 
d="M75 146q47 58 91 130q103 169 165 365q46 144 82 375q23 148 53 148q25 0 49 -142q38 -225 91 -385q106 -318 270 -477l-56 -161q-9 -25 -14 -25q-7 3 -22 20q-122 136 -223 422q-86 243 -96 386q-20 -178 -86 -384q-91 -285 -227 -436q-14 -16 -19 -17q-5 3 -11 23z" />
    <glyph glyph-name="eight" unicode="&#x6f8;" horiz-adv-x="960" 
d="M75 146q47 58 91 130q103 169 165 365q46 144 82 375q23 148 53 148q25 0 49 -142q38 -225 91 -385q106 -318 270 -477l-56 -161q-9 -25 -14 -25q-7 3 -22 20q-122 136 -223 422q-86 243 -96 386q-20 -178 -86 -384q-91 -285 -227 -436q-14 -16 -19 -17q-5 3 -11 23z" />
    <glyph glyph-name="eight" unicode="&#x668;" horiz-adv-x="960" 
d="M75 146q47 58 91 130q103 169 165 365q46 144 82 375q23 148 53 148q25 0 49 -142q38 -225 91 -385q106 -318 270 -477l-56 -161q-9 -25 -14 -25q-7 3 -22 20q-122 136 -223 422q-86 243 -96 386q-20 -178 -86 -384q-91 -285 -227 -436q-14 -16 -19 -17q-5 3 -11 23z" />
    <glyph glyph-name="nine" unicode="9" horiz-adv-x="960" 
d="M807 161l-38 -175q-5 -21 -9 -22q-5 0 -27 24q-108 118 -142 296q-20 106 -20 333q-71 -27 -185 -27q-222 0 -222 187q0 131 68 248q75 129 179 129q142 0 205 -148q45 -105 45 -270q0 -250 43 -393q33 -109 103 -182zM552 778q-4 73 -47 133q-48 69 -117 69
q-51 0 -91 -39t-40 -90q0 -96 159 -96q81 0 136 23z" />
    <glyph glyph-name="nine" unicode="&#x6f9;" horiz-adv-x="960" 
d="M807 161l-38 -175q-5 -21 -9 -22q-5 0 -27 24q-108 118 -142 296q-20 106 -20 333q-71 -27 -185 -27q-222 0 -222 187q0 131 68 248q75 129 179 129q142 0 205 -148q45 -105 45 -270q0 -250 43 -393q33 -109 103 -182zM552 778q-4 73 -47 133q-48 69 -117 69
q-51 0 -91 -39t-40 -90q0 -96 159 -96q81 0 136 23z" />
    <glyph glyph-name="nine" unicode="&#x669;" horiz-adv-x="960" 
d="M807 161l-38 -175q-5 -21 -9 -22q-5 0 -27 24q-108 118 -142 296q-20 106 -20 333q-71 -27 -185 -27q-222 0 -222 187q0 131 68 248q75 129 179 129q142 0 205 -148q45 -105 45 -270q0 -250 43 -393q33 -109 103 -182zM552 778q-4 73 -47 133q-48 69 -117 69
q-51 0 -91 -39t-40 -90q0 -96 159 -96q81 0 136 23z" />
    <glyph glyph-name="colon" unicode=":" horiz-adv-x="334" 
d="M333 522q0 -36 -26.5 -62t-62.5 -26t-62.5 26t-26.5 62q0 37 26 63t63 26t63 -26t26 -63zM333 91q0 -36 -26.5 -62t-62.5 -26t-62.5 26t-26.5 62t26.5 62.5t62.5 26.5t62.5 -26.5t26.5 -62.5z" />
    <glyph glyph-name="equal" unicode="=" horiz-adv-x="767" 
d="M707 456h-652v77h652v-77zM707 210h-652v76h652v-76z" />
    <glyph glyph-name="bracketleft" unicode="[" horiz-adv-x="640" 
d="M539 -101h-325v1645h325v-62h-182v-1521h182v-62z" />
    <glyph glyph-name="bracketright" unicode="]" horiz-adv-x="640" 
d="M419 -101h-284v62h141v1520h-141v61h284v-1643z" />
    <glyph glyph-name="braceleft" unicode="{" horiz-adv-x="981" 
d="M832 -320q-152 27 -249 129q-103 107 -103 257q0 61 26 177q19 85 19 112q0 97 -72 163q-67 62 -166 73v38q239 52 239 219q0 47 -16 122q-27 126 -27 188q0 151 101 257q96 102 248 127v-40q-94 -14 -155 -73q-67 -64 -67 -155q0 -46 13 -115q30 -160 30 -210
q0 -224 -286 -336q283 -116 283 -350q0 -49 -27 -179q-17 -82 -17 -135q0 -180 226 -233v-36z" />
    <glyph glyph-name="braceright" unicode="}" horiz-adv-x="981" 
d="M695 593q-239 -52 -239 -220q0 -52 15 -122q28 -131 28 -187q0 -151 -101 -257q-96 -102 -248 -127v40q94 14 155 73q66 63 66 155q0 48 -12 114q-30 164 -30 211q0 223 285 336q-282 116 -282 349q0 55 26 180q18 87 18 135q0 180 -226 233v36q152 -28 249 -129
q103 -106 103 -257q0 -57 -27 -177q-18 -80 -18 -113q0 -97 73 -162q64 -58 165 -74v-37z" />
    <glyph glyph-name="guillemotleft" unicode="&#xab;" horiz-adv-x="854" 
d="M804 129h-93l-340 400l340 393h87l-226 -393zM497 129h-89l-338 400l340 393h87l-226 -393z" />
    <glyph glyph-name="guillemotright" unicode="&#xbb;" horiz-adv-x="854" 
d="M784 529l-338 -400h-89l226 400l-226 393h87zM483 529l-340 -400h-93l232 400l-226 393h87z" />
    <glyph glyph-name="multiply" unicode="&#xd7;" horiz-adv-x="767" 
d="M697 109l-57 -55l-255 255l-257 -256l-55 55l256 257l-254 255l54 55l255 -255l255 256l56 -56l-254 -254z" />
    <glyph glyph-name="divide" unicode="&#xf7;" horiz-adv-x="946" 
d="M549 772q0 -36 -23.5 -61.5t-59.5 -25.5q-35 0 -60.5 26t-25.5 61q0 36 25 59.5t61 23.5q35 0 59 -24t24 -59zM835 452h-730v83h730v-83zM549 215q0 -36 -23.5 -61t-59.5 -25q-35 0 -60.5 25.5t-25.5 60.5q0 36 25 60.5t61 24.5q83 0 83 -85z" />
    <glyph glyph-name="zeronojoin" unicode="&#x200c;" horiz-adv-x="37" 
 />
    <glyph glyph-name="zerojoin" unicode="&#x200d;" horiz-adv-x="37" 
 />
    <glyph glyph-name="lefttoright" unicode="&#x200e;" horiz-adv-x="37" 
d="M245 1305l-108 -111l-28 23l72 72h-144v-1289h-37v1324h176l-67 67l28 25z" />
    <glyph glyph-name="righttoleft" unicode="&#x200f;" horiz-adv-x="37" 
d="M37 0h-37v1289h-143l69 -72l-23 -23l-114 111l114 111l23 -25l-67 -67h178v-1324z" />
    <glyph glyph-name="quoteleft" unicode="&#x2018;" horiz-adv-x="491" 
d="M467 1486q-89 -59 -154 -145q-76 -101 -76 -193q0 -55 32 -98q39 47 90 47q102 0 102 -100q0 -59 -48 -92q-43 -30 -104 -30q-82 0 -133 50.5t-51 132.5q0 141 108 283q97 127 234 200v-55z" />
    <glyph glyph-name="quoteright" unicode="&#x2019;" horiz-adv-x="491" 
d="M444 1353q0 -143 -107 -281q-91 -118 -232 -200v56q228 162 228 338q0 62 -33 101q-33 -49 -95 -49q-41 0 -69.5 28t-28.5 69q0 58 49 93q43 31 104 31q86 0 135 -50t49 -136z" />
    <glyph glyph-name="quotedblleft" unicode="&#x201c;" horiz-adv-x="650" 
d="M572 1146q-13 -6 -41 -26q-52 -51 -52 -95q82 -22 82 -112q0 -45 -31.5 -78t-76.5 -33q-52 0 -84 42q-29 38 -29 92q0 201 203 359q0 -83 1 -93q4 -40 28 -56zM302 1146q-13 -6 -41 -26q-52 -51 -52 -95q82 -22 82 -112q0 -45 -31.5 -78t-76.5 -33q-52 0 -84 42
q-29 38 -29 92q0 201 203 359q0 -83 1 -93q4 -40 28 -56z" />
    <glyph glyph-name="quotedblright" unicode="&#x201d;" horiz-adv-x="650" 
d="M580 1151q0 -201 -203 -359q0 83 -1 93q-4 40 -28 56q13 6 41 26q52 51 52 95q-82 22 -82 112q0 46 31 78.5t77 32.5q54 0 85 -41q28 -37 28 -93zM310 1151q0 -201 -203 -359q0 83 -1 93q-4 40 -28 56q13 6 41 26q52 51 52 95q-82 22 -82 112q0 46 31 78.5t77 32.5
q54 0 85 -41q28 -37 28 -93z" />
    <glyph glyph-name="guilsinglleft" unicode="&#x2039;" horiz-adv-x="512" 
d="M457 966l-228 -382l222 -380v-75l-383 455l389 457v-75z" />
    <glyph glyph-name="guilsinglright" unicode="&#x203a;" horiz-adv-x="512" 
d="M457 586l-393 -457v75l231 382l-222 381v77z" />
    <glyph glyph-name="u060C" unicode="&#x60c;" horiz-adv-x="418" 
d="M415 103q0 -33 -28 -65q-36 -41 -94 -41q-66 0 -103 49q-34 45 -34 113q0 168 140 243q19 10 46 11q28 1 28 -11q-4 -6 -30 -29q-84 -74 -84 -177q33 10 61 10q98 0 98 -103z" />
    <glyph glyph-name="u061B" unicode="&#x61b;" horiz-adv-x="418" 
d="M377 91q0 -36 -26.5 -62t-62.5 -26t-62.5 26t-26.5 62t26.5 62.5t62.5 26.5t62.5 -26.5t26.5 -62.5zM415 411q0 -32 -28 -64q-36 -41 -94 -41q-66 0 -103 49q-34 44 -34 112q0 168 140 243q19 10 46 11q28 1 28 -11q-4 -6 -30 -29q-84 -74 -84 -177q33 10 61 10
q98 0 98 -103z" />
    <glyph glyph-name="u061F" unicode="&#x61f;" horiz-adv-x="700" 
d="M699 930q0 -66 -30 -111q-35 -53 -98 -53q-38 0 -64 25.5t-26 63.5q0 42 29 71.5t71 29.5q33 0 66 -21q1 72 -56 119q-54 44 -127 44q-64 0 -110.5 -52.5t-46.5 -117.5q0 -68 98.5 -238.5t98.5 -256.5q0 -25 -4 -50l-18 -114l-49 1l10 98q6 58 -68 129q-133 128 -142 139
q-78 96 -78 212q0 127 81 219q84 97 209 97q105 0 178 -64q76 -67 76 -170zM530 85q0 -35 -25 -59.5t-60 -24.5t-60 24.5t-25 59.5t25 60t60 25t60 -25t25 -60z" />
    <glyph glyph-name="u0640" unicode="&#x640;" horiz-adv-x="618" 
d="M642 1h-665v148h665v-148z" />
    <glyph glyph-name="u064B" unicode="&#x64b;" 
d="M403 1401l-302 -124v79l302 119v-74zM403 1586l-302 -124v79l302 119v-74z" />
    <glyph glyph-name="u064C" unicode="&#x64c;" 
d="M433 1500q0 -42 -65 -114q10 -6 41 -15l-35 -60q-45 8 -77 31q-108 -64 -190 -64q-28 0 -58 66q41 0 55 5q22 25 22 50q0 26 -27 26q-22 0 -46 -26l-10 47q36 41 74 41q13 0 26 -6q35 -16 35 -61q0 -35 -21 -67q68 6 97 29q-33 56 -33 77q0 45 61 90q52 38 79 38
q72 0 72 -87zM362 1490q0 29 -31 29q-42 0 -42 -41q0 -33 34 -61q39 24 39 73z" />
    <glyph glyph-name="u064D" unicode="&#x64d;" 
d="M455 -921l-302 -124v79l302 119v-74zM455 -736l-302 -124v79l302 119v-74z" />
    <glyph glyph-name="u064E" unicode="&#x64e;" 
d="M403 1401l-302 -124v79l302 119v-74z" />
    <glyph glyph-name="u064F" unicode="&#x64f;" 
d="M427 1500q0 -40 -64 -114q9 -6 40 -15l-34 -60q-47 9 -77 31q-113 -64 -190 -64q-30 0 -58 67q86 2 116 6q60 8 88 32q-32 57 -32 77q0 44 61 89q52 39 78 39q33 0 54 -28q18 -26 18 -60zM356 1490q0 29 -30 29q-44 0 -44 -40q0 -34 35 -61q39 23 39 72z" />
    <glyph glyph-name="u0650" unicode="&#x650;" 
d="M455 -736l-303 -124v79l303 119v-74z" />
    <glyph glyph-name="u0651" unicode="&#x651;" 
d="M434 1406q0 -51 -29 -87q-32 -38 -82 -38q-52 0 -81 53q-47 -56 -109 -56q-37 0 -64 34t-27 72q0 28 16 62q19 41 43 41q12 0 12 -18q0 -9 -2 -25.5t-2 -25.5q0 -45 42 -45t58 33q5 11 17 65q4 19 20 19t18 -21q11 -101 59 -101q46 0 46 48q0 20 -8 47l51 42
q22 -36 22 -99z" />
    <glyph glyph-name="u0652" unicode="&#x652;" 
d="M366 1403q0 -123 -126 -123q-109 0 -109 93q0 41 31 116q35 84 68 84q66 0 103 -54q33 -47 33 -116zM331 1394q0 83 -101 83q-15 0 -30 -35q-13 -30 -13 -49q0 -36 60 -36q84 0 84 37z" />
    <glyph glyph-name="uE820" unicode="&#xe820;" 
d="M412 940l-302 -124v79l302 119v-74z" />
    <glyph glyph-name="uE821" unicode="&#xe821;" 
d="M446 1081q0 -40 -64 -114q9 -6 40 -15l-34 -60q-47 9 -77 31q-113 -64 -190 -64q-30 0 -58 67q86 2 116 6q60 8 88 32q-32 57 -32 77q0 44 61 89q52 39 78 39q33 0 54 -28q18 -26 18 -60zM375 1071q0 29 -30 29q-44 0 -44 -40q0 -34 35 -61q39 23 39 72z" />
    <glyph glyph-name="uE822" unicode="&#xe822;" 
d="M338 966q0 -123 -126 -123q-109 0 -109 93q0 41 31 116q35 84 68 84q66 0 103 -54q33 -47 33 -116zM303 957q0 83 -101 83q-15 0 -30 -35q-13 -30 -13 -49q0 -36 60 -36q84 0 84 37z" />
    <glyph glyph-name="uE823" unicode="&#xe823;" 
d="M394 959l-302 -124v79l302 119v-74zM394 1144l-302 -124v79l302 119v-74z" />
    <glyph glyph-name="uE824" unicode="&#xe824;" 
d="M489 1076q0 -42 -65 -114q10 -6 41 -15l-35 -60q-45 8 -77 31q-108 -64 -190 -64q-28 0 -58 66q41 0 55 5q22 25 22 50q0 26 -27 26q-22 0 -46 -26l-10 47q36 41 74 41q13 0 26 -6q35 -16 35 -61q0 -35 -21 -67q68 6 97 29q-33 56 -33 77q0 45 61 90q52 38 79 38
q72 0 72 -87zM418 1066q0 29 -31 29q-42 0 -42 -41q0 -33 34 -61q39 24 39 73z" />
    <glyph glyph-name="uE825" unicode="&#xe825;" 
d="M434 950q0 -51 -29 -87q-32 -38 -82 -38q-52 0 -81 53q-47 -56 -109 -56q-37 0 -64 34t-27 72q0 28 16 62q19 41 43 41q12 0 12 -18q0 -9 -2 -25.5t-2 -25.5q0 -45 42 -45t58 33q5 11 17 65q4 19 20 19t18 -21q11 -101 59 -101q46 0 46 48q0 20 -8 47l51 42
q22 -36 22 -99z" />
    <glyph glyph-name="uE826" unicode="&#xe826;" 
d="M355 -449l-303 -124v79l303 119v-74z" />
    <glyph glyph-name="uE827" unicode="&#xe827;" 
d="M342 -604l-302 -124v79l302 119v-74zM342 -419l-302 -124v79l302 119v-74z" />
    <glyph glyph-name="uE828" unicode="&#xe828;" 
d="M448 971q0 -51 -29 -87q-32 -38 -82 -38q-52 0 -81 53q-47 -56 -109 -56q-37 0 -64 34t-27 72q0 28 16 62q19 41 43 41q12 0 12 -18q0 -9 -2 -25.5t-2 -25.5q0 -45 42 -45t58 33q5 11 17 65q4 19 20 19t18 -21q11 -101 59 -101q46 0 46 48q0 20 -8 47l51 42
q22 -36 22 -99zM422 1300l-302 -124v79l302 119v-74z" />
    <glyph glyph-name="uE829" unicode="&#xe829;" 
d="M490 965q0 -51 -29 -87q-32 -38 -82 -38q-51 0 -81 53q-46 -55 -109 -55q-41 0 -69 41q-22 33 -22 64q0 28 16 62q19 41 43 41q12 0 12 -18q0 -8 -2 -25t-2 -25q0 -45 42 -45t58 33q4 8 17 65q4 18 20 18t18 -20q11 -101 59 -101q46 0 46 48q0 20 -8 47l51 41
q22 -34 22 -99zM483 1359q0 -42 -64 -113q9 -7 40 -15l-34 -61q-47 9 -77 31q-113 -64 -190 -64q-30 0 -58 67q86 2 116 6q60 8 88 32q-32 57 -32 77q0 44 61 89q52 39 78 39q33 0 54 -28q18 -26 18 -60zM412 1349q0 30 -30 30q-15 0 -29.5 -13t-14.5 -28q0 -34 35 -61
q39 24 39 72z" />
    <glyph glyph-name="uE82A" unicode="&#xe82a;" 
d="M389 1260l-302 -124v79l302 120v-75zM420 965q0 -51 -29 -87q-32 -38 -82 -38q-51 0 -81 53q-46 -55 -109 -55q-41 0 -69 41q-22 33 -22 64q0 28 16 62q19 41 43 41q12 0 12 -18q0 -8 -2 -25t-2 -25q0 -45 42 -45t58 33q4 8 17 65q4 18 20 18t18 -20q11 -101 59 -101
q46 0 46 48q0 20 -8 47l51 41q22 -34 22 -99zM389 1445l-302 -124v79l302 119v-74z" />
    <glyph glyph-name="uE82B" unicode="&#xe82b;" 
d="M457 1029q0 -51 -29 -87q-32 -38 -82 -38q-52 0 -81 53q-47 -56 -109 -56q-37 0 -64 34t-27 72q0 28 16 62q19 41 43 41q12 0 12 -18q0 -9 -2 -25.5t-2 -25.5q0 -45 42 -45t58 33q5 11 17 65q4 19 20 19t18 -21q11 -101 59 -101q46 0 46 48q0 20 -8 47l51 42
q22 -36 22 -99zM468 1461q0 -42 -65 -114q10 -6 41 -15l-35 -60q-45 8 -77 31q-108 -64 -190 -64q-28 0 -58 66q41 0 55 5q22 25 22 50q0 26 -27 26q-22 0 -46 -26l-10 47q36 41 74 41q13 0 26 -6q35 -16 35 -61q0 -35 -21 -67q68 6 97 29q-33 56 -33 77q0 45 61 90
q52 38 79 38q72 0 72 -87zM397 1451q0 29 -31 29q-42 0 -42 -41q0 -33 34 -61q39 24 39 73z" />
    <glyph glyph-name="uE82C" unicode="&#xe82c;" 
d="M490 1221q0 -51 -29 -87q-32 -38 -82 -38q-52 0 -81 53q-47 -56 -109 -56q-37 0 -64 34t-27 72q0 28 16 62q19 41 43 41q12 0 12 -18q0 -9 -2 -25.5t-2 -25.5q0 -45 42 -45t58 33q5 11 17 65q4 19 20 19t18 -21q11 -101 59 -101q46 0 46 48q0 20 -8 47l51 42
q22 -36 22 -99zM442 960l-302 -123v78l302 120v-75z" />
    <glyph glyph-name="uE82D" unicode="&#xe82d;" 
d="M390 1381q0 -51 -29 -87q-32 -38 -82 -38q-52 0 -81 53q-47 -56 -109 -56q-37 0 -64 34t-27 72q0 28 16 62q19 41 43 41q12 0 12 -18q0 -9 -2 -25.5t-2 -25.5q0 -45 42 -45t58 33q5 11 17 65q4 19 20 19t18 -21q11 -101 59 -101q46 0 46 48q0 20 -8 47l51 42
q22 -36 22 -99zM342 1120l-302 -123v78l302 120v-75zM342 960l-302 -123v78l302 120v-75z" />
    <glyph glyph-name="u0621" unicode="&#x621;" horiz-adv-x="634" 
d="M634 247q-7 -31 -44 -110q-221 -24 -432 -144q2 26 11 73q12 26 143 88q-106 56 -106 115q0 71 84 149.5t156 78.5q35 0 70 -22.5t47 -55.5q6 -16 6 -28q0 -27 -25 -27q-16 0 -60 16t-68 16q-30 0 -73 -21q-49 -23 -49 -49q0 -24 32 -55q28 -28 55 -38q33 -13 74 -13
q35 0 90 11q70 14 89 16z" />
    <glyph glyph-name="periodcentered" unicode="&#xb7;" horiz-adv-x="405" 
d="M326 768q0 -50 -35.5 -85t-85.5 -35q-49 0 -84.5 35.5t-35.5 84.5t34.5 85t83.5 36q51 0 87 -35t36 -86z" />
    <glyph glyph-name="periodcentered" unicode="&#x2219;" horiz-adv-x="405" 
d="M326 768q0 -50 -35.5 -85t-85.5 -35q-49 0 -84.5 35.5t-35.5 84.5t34.5 85t83.5 36q51 0 87 -35t36 -86z" />
    <glyph glyph-name="periodcentered" unicode="&#x2d9;" horiz-adv-x="405" 
d="M326 768q0 -50 -35.5 -85t-85.5 -35q-49 0 -84.5 35.5t-35.5 84.5t34.5 85t83.5 36q51 0 87 -35t36 -86z" />
    <glyph glyph-name="glyph218" horiz-adv-x="1" 
d="M535 430q0 -24 -15 -43q-9 -11 -13 -12q-3 2 -3 15q0 67 -37 325l50 30q6 4 9 4q2 -1 3 -7q6 -75 6 -312z" />
  </font>
</defs>
</svg>
