<?xml version="1.0" standalone="no"?>
<!DOCTYPE svg PUBLIC "-//W3C//DTD SVG 1.1//EN" "http://www.w3.org/Graphics/SVG/1.1/DTD/svg11.dtd" >
<svg xmlns="http://www.w3.org/2000/svg">
<metadata></metadata>
<defs>
<font id="b_zarregular" horiz-adv-x="0" >
<font-face units-per-em="2048" ascent="1638" descent="-410" />
<missing-glyph horiz-adv-x="400" />
<glyph unicode="&#x651;&#x64b;" d="M449 1403q0 -43 -28 -88q-34 -55 -84 -55q-21 0 -43 10q-56 -101 -135 -101q-32 0 -50 32q-16 27 -16 61q0 55 38 124q6 11 15 13q4 -6 8 -11q-3 -29 -3 -51q0 -70 33 -70q45 0 77 100t35 100q9 0 16.5 -53t36.5 -53q33 0 49 83t22 83q29 0 29 -124zM489 1731l-38 -97 l-371 -181l37 89zM489 1901l-38 -97l-371 -181l37 89z" />
<glyph unicode="&#x651;&#x64c;" arabic-form="isolated" d="M437 1403q0 -42 -27 -86q-34 -54 -83 -54q-20 0 -42 9q-55 -99 -132 -99q-65 0 -65 92q0 53 37 121q6 11 15 13q4 -6 8 -11q-3 -28 -3 -50q0 -68 32 -68q44 0 75.5 98t34.5 98q9 0 16.5 -52t35.5 -52q33 0 48.5 81t21.5 81q28 0 28 -121zM475 1854q0 -95 -64 -158l52 -23 l-9 -87q-55 9 -104 55q-133 -102 -249 -120l-52 35q72 41 75 105q2 35 -7 42q-22 16 -80 -15l-1 30q55 58 95 58q59 0 59 -61q0 -53 -37 -116q116 48 138 83q-41 41 -41 97q0 44 56.5 102.5t101.5 58.5q67 0 67 -86zM390 1860q-19 0 -45 -19q-29 -20 -29 -38 q0 -17 16.5 -42.5t32.5 -25.5q20 0 34 39q11 30 11 56q0 30 -20 30z" />
<glyph unicode="&#x651;&#x64d;" arabic-form="isolated" d="M449 1864q0 -43 -28 -88q-34 -55 -84 -55q-21 0 -43 10q-56 -101 -135 -101q-32 0 -50 32q-16 27 -16 61q0 55 38 124q6 11 15 13q4 -6 8 -11q-3 -29 -3 -51q0 -70 33 -70q45 0 77 100t35 100q9 0 16.5 -53t36.5 -53q33 0 49 83t22 83q29 0 29 -124zM469 1672l-38 -97 l-371 -181l37 89zM469 1512l-38 -97l-371 -181l37 89z" />
<glyph unicode="&#x651;&#x64e;" arabic-form="isolated" d="M430 1397q0 -42 -27 -86q-34 -54 -83 -54q-20 0 -42 9q-55 -99 -132 -99q-65 0 -65 92q0 53 37 121q6 11 15 13q4 -6 8 -11q-3 -28 -3 -50q0 -68 32 -68q44 0 75.5 98t34.5 98q9 0 16.5 -52t35.5 -52q33 0 48.5 81t21.5 81q28 0 28 -121zM476 1738l-38 -97l-371 -181 l37 89z" />
<glyph unicode="&#x651;&#x64f;" arabic-form="isolated" d="M457 1427q0 -43 -28 -88q-34 -55 -84 -55q-21 0 -43 10q-56 -101 -135 -101q-32 0 -50 32q-16 27 -16 61q0 55 38 124q6 11 15 13q4 -6 8 -11q-3 -29 -3 -51q0 -70 33 -70q45 0 77 100t35 100q9 0 16.5 -53t36.5 -53q33 0 49 83t22 83q29 0 29 -124zM492 1872 q0 -92 -64 -157q17 -13 51 -28l-7 -85q-71 22 -114 61q-131 -110 -262 -129q-45 6 -47 39q182 60 259 127q-46 44 -46 95q0 46 57.5 105.5t102.5 59.5q70 0 70 -88zM402 1878q-18 0 -45.5 -20t-27.5 -37q0 -18 16.5 -44t33.5 -26q19 0 33 40q11 33 11 56q0 31 -21 31z" />
<glyph unicode="&#x651;&#x650;" arabic-form="isolated" d="M441 1672q0 -43 -28 -88q-34 -55 -84 -55q-21 0 -43 10q-56 -101 -135 -101q-32 0 -50 32q-16 27 -16 61q0 55 38 124q6 11 15 13q4 -6 8 -11q-3 -29 -3 -51q0 -70 33 -70q45 0 77 100t35 100q9 0 16.5 -53t36.5 -53q33 0 49 83t22 83q29 0 29 -124zM461 1480l-38 -97 l-371 -181l37 89z" />
<glyph unicode="&#xfedf;&#xfee0;&#xfeea;" horiz-adv-x="1181" arabic-form="isolated" d="M842 1226q0 -101 -27 -101q-6 0 -13 62q-4 38 -22 75q20 21 52 38q10 -38 10 -74zM935 1068q5 -149 -79 -149q-32 0 -55 36q-37 -78 -95 -78q-51 0 -51 56q0 21 18 65q20 49 36 49q4 -2 4 -11q0 -7 -2.5 -20.5t-2.5 -20.5q0 -27 28 -27q25 0 48 49t30 49q4 0 11.5 -37 t32.5 -37q36 0 51 69q5 21 17 21q9 0 9 -14zM1256 262q0 -94 -29 -168q-38 -98 -115 -98q-113 0 -178 174q-67 -178 -232 -178q-126 0 -192 148q-53 -79 -93 -79q-76 0 -145 16q-83 19 -83 49q0 21 23 84.5t36 77.5q91 96 236 138q-1 51 -1 86q0 36 1 58l59 58q20 20 20 -12 q0 -100 21 -250q28 -200 128 -200q56 0 105 27q59 32 59 83q0 29 -83 445l53 89q14 24 20 24q7 0 12 -28q21 -120 54 -282q68 -330 196 -330q50 0 50 48q0 56 -114 478l40 96q12 29 18 29t16 -31q34 -106 73 -277q45 -198 45 -275zM498 246q-5 51 -8 95q-55 0 -118 -46 q-56 -41 -56 -57q0 -14 66 -11q64 3 116 19z" />
<glyph unicode="&#xfedf;&#xfe82;" horiz-adv-x="1062" arabic-form="isolated" d="M1066 1122q-55 -43 -55 -129q0 -235 -31 -386q-26 -126 -95 -283q57 -137 57 -212q0 -89 -98 -142q-31 -17 -160 -21q-122 -4 -164 5q-52 11 -52 58v118h95q39 0 122 78q79 75 79 102q0 26 -143 224q-148 205 -243 303q-38 -41 -58 -41q-215 206 -215 235q0 33 39 110 q41 83 68 83q34 0 160 -140q113 -125 210 -260q177 -246 249 -395q39 68 63 227q19 129 19 240q0 116 -21 177q-18 52 9 89l58 81q16 23 31 -1zM844 132q0 55 -30 88q-34 -45 -96 -94q102 0 126 6zM692 1511q-63 -85 -190 -126q-99 -32 -209 -32q-28 0 -82 10.5t-82 10.5 q-31 0 -38 -43q-4 -27 -23 -27q-36 0 -60 35q-22 31 -22 69q0 87 94 86q39 0 116.5 -13.5t117.5 -13.5q155 0 235 19q35 8 85 29q43 18 50 18q9 0 10 -9q2 -8 -2 -13z" />
<glyph unicode="&#xfee0;&#xfe82;" horiz-adv-x="1242" arabic-form="final" d="M1272 1h-73q-154 0 -197 230q-12 63 -60 409q-81 -552 -327 -697q-31 -18 -180 -40q-139 -20 -192 -18q-47 2 -47 14q0 11 38 23q187 60 363 189q159 116 159 171q0 72 -141.5 237t-209.5 165q-6 0 -39 -27l-33 -27q-30 0 -127 57q-107 63 -107 104q0 208 57 208 q89 0 265 -132q330 -248 393 -489q81 283 77 658q31 38 71 92q10 13 15 14q6 0 8 -22l34 -432q30 -284 81 -426q36 -100 113 -100h59v-161zM682 1311q-63 -85 -190 -126q-99 -32 -209 -32q-28 0 -82 10.5t-82 10.5q-31 0 -38 -43q-4 -27 -23 -27q-36 0 -60 35q-22 31 -22 69 q0 87 94 86q39 0 116.5 -13.5t117.5 -13.5q155 0 235 19q35 8 85 29q43 18 50 18q9 0 10 -9q2 -8 -2 -13z" />
<glyph unicode="&#xfedf;&#xfe84;" horiz-adv-x="1062" arabic-form="isolated" d="M1066 1122q-55 -43 -55 -129q0 -235 -31 -386q-26 -126 -95 -283q57 -137 57 -212q0 -89 -98 -142q-31 -17 -160 -21q-122 -4 -164 5q-52 11 -52 58v118h95q39 0 122 78q79 75 79 102q0 26 -143 224q-148 205 -243 303q-38 -41 -58 -41q-215 206 -215 235q0 33 39 110 q41 83 68 83q34 0 160 -140q113 -125 210 -260q177 -246 249 -395q39 68 63 227q19 129 19 240q0 116 -21 177q-18 52 9 89l58 81q16 23 31 -1zM844 132q0 55 -30 88q-34 -45 -96 -94q102 0 126 6zM441 1474q-17 -41 -39 -89q-178 -26 -292 -72q4 14 12 32q40 50 90 68 q-76 48 -76 82q0 51 53 111t103 60q60 0 60 -50q0 -51 -21 -77q-8 -10 -15 4q-20 44 -71 44q-38 0 -38 -37q0 -33 44 -64q41 -30 75 -30q25 0 115 18z" />
<glyph unicode="&#xfee0;&#xfe84;" horiz-adv-x="1242" arabic-form="final" d="M1272 1h-73q-154 0 -197 230q-12 63 -60 409q-81 -552 -327 -697q-31 -18 -180 -40q-139 -20 -192 -18q-47 2 -47 14q0 11 38 23q187 60 363 189q159 116 159 171q0 72 -141.5 237t-209.5 165q-6 0 -39 -27l-33 -27q-30 0 -127 57q-107 63 -107 104q0 208 57 208 q89 0 265 -132q330 -248 393 -489q81 283 77 658q31 38 71 92q10 13 15 14q6 0 8 -22l34 -432q30 -284 81 -426q36 -100 113 -100h59v-161zM372 1263q-17 -41 -39 -89q-178 -26 -292 -72q4 14 12 32q40 50 90 68q-76 48 -76 82q0 51 53 111t103 60q60 0 60 -50 q0 -51 -21 -77q-8 -10 -15 4q-20 44 -71 44q-38 0 -38 -37q0 -33 44 -64q41 -30 75 -30q25 0 115 18z" />
<glyph unicode="&#xfedf;&#xfe88;" horiz-adv-x="1062" arabic-form="isolated" d="M1066 1122q-55 -43 -55 -129q0 -235 -31 -386q-26 -126 -95 -283q57 -137 57 -212q0 -89 -98 -142q-31 -17 -160 -21q-122 -4 -164 5q-52 11 -52 58v118h95q39 0 122 78q79 75 79 102q0 26 -143 224q-148 205 -243 303q-38 -41 -58 -41q-215 206 -215 235q0 33 39 110 q41 83 68 83q34 0 160 -140q113 -125 210 -260q177 -246 249 -395q39 68 63 227q19 129 19 240q0 116 -21 177q-18 52 9 89l58 81q16 23 31 -1zM844 132q0 55 -30 88q-34 -45 -96 -94q102 0 126 6zM523 -256q-17 -41 -39 -89q-178 -26 -292 -72q4 14 12 32q40 50 90 68 q-76 48 -76 82q0 51 53 111t103 60q60 0 60 -50q0 -51 -21 -77q-8 -10 -15 4q-20 44 -71 44q-38 0 -38 -37q0 -33 44 -64q41 -30 75 -30q25 0 115 18z" />
<glyph unicode="&#xfee0;&#xfe88;" horiz-adv-x="1242" arabic-form="final" d="M1272 1h-73q-154 0 -197 230q-12 63 -60 409q-81 -552 -327 -697q-31 -18 -180 -40q-139 -20 -192 -18q-47 2 -47 14q0 11 38 23q187 60 363 189q159 116 159 171q0 72 -141.5 237t-209.5 165q-6 0 -39 -27l-33 -27q-30 0 -127 57q-107 63 -107 104q0 208 57 208 q89 0 265 -132q330 -248 393 -489q81 283 77 658q31 38 71 92q10 13 15 14q6 0 8 -22l34 -432q30 -284 81 -426q36 -100 113 -100h59v-161zM397 -389q-17 -41 -39 -89q-178 -26 -292 -72q4 14 12 32q40 50 90 68q-76 48 -76 82q0 51 53 111t103 60q60 0 60 -50 q0 -51 -21 -77q-8 -10 -15 4q-20 44 -71 44q-38 0 -38 -37q0 -33 44 -64q41 -30 75 -30q25 0 115 18z" />
<glyph unicode="&#xfedf;&#xfe8e;" horiz-adv-x="1062" arabic-form="isolated" d="M1066 1122q-55 -43 -55 -129q0 -235 -31 -386q-26 -126 -95 -283q57 -137 57 -212q0 -89 -98 -142q-31 -17 -160 -21q-122 -4 -164 5q-52 11 -52 58v118h95q39 0 122 78q79 75 79 102q0 26 -143 224q-148 205 -243 303q-38 -41 -58 -41q-215 206 -215 235q0 33 39 110 q41 83 68 83q34 0 160 -140q113 -125 210 -260q177 -246 249 -395q39 68 63 227q19 129 19 240q0 116 -21 177q-18 52 9 89l58 81q16 23 31 -1zM844 132q0 55 -30 88q-34 -45 -96 -94q102 0 126 6z" />
<glyph unicode="&#xfee0;&#xfe8e;" horiz-adv-x="1242" arabic-form="final" d="M1272 1h-73q-154 0 -197 230q-12 63 -60 409q-81 -552 -327 -697q-31 -18 -180 -40q-139 -20 -192 -18q-47 2 -47 14q0 11 38 23q187 60 363 189q159 116 159 171q0 72 -141.5 237t-209.5 165q-6 0 -39 -27l-33 -27q-30 0 -127 57q-107 63 -107 104q0 208 57 208 q89 0 265 -132q330 -248 393 -489q81 283 77 658q31 38 71 92q10 13 15 14q6 0 8 -22l34 -432q30 -284 81 -426q36 -100 113 -100h59v-161z" />
<glyph unicode="&#x652;&#x64e;" horiz-adv-x="1" d="M224 969q1 -3 1 -9q0 -45 -22 -78q-2 -3 -7 -3t-4 5q4 38 -7 120q-3 24 -12 85q-5 39 -5 74q0 6 12 24q20 28 27 28q5 0 3 -13q-1 -14 -1 -33q0 -48 15 -200z" />
<glyph unicode="&#x652;&#x64b;" horiz-adv-x="1" d="M547 803l-79 -121l-123 81l-65 -101l-129 89l82 129l120 -81l61 95z" />
<glyph unicode="&#x652;&#x64d;" horiz-adv-x="1" d="M809 -702l-79 -121l-123 81l-65 -101l-129 89l82 129l120 -81l61 95z" />
<glyph unicode="&#x6c0;" horiz-adv-x="604" arabic-form="isolated" d="M602 310q5 -41 -2 -113q-8 -80 -26 -107q-61 -90 -228 -90q-52 0 -96 35q-59 47 -59 133q0 106 78 243q71 125 105 125q85 0 153 -71q64 -68 75 -155zM530 230q0 32 -46 70q-57 48 -146 48q-19 0 -42 -52q-20 -46 -20 -70q0 -60 92 -60q51 0 101 15q61 18 61 49zM544 895 q-17 -41 -39 -89q-178 -26 -292 -72q4 14 12 32q40 50 90 68q-76 48 -76 82q0 51 53 111t103 60q60 0 60 -50q0 -51 -21 -77q-8 -10 -15 4q-20 44 -71 44q-38 0 -38 -37q0 -33 44 -64q41 -30 75 -30q25 0 115 18z" />
<glyph unicode="&#x6a9;" horiz-adv-x="2003" arabic-form="isolated" d="M2079 1316q-10 -28 -45 -95q-39 -75 -50 -85q-633 -211 -785 -313q-18 -12 -18 -21q0 -8 20 -20q173 -105 249 -178q137 -132 137 -283q0 -124 -54 -186q-49 -56 -308 -114q-281 -63 -547 -63q-487 0 -487 298q0 134 97 255q14 17 23 17q7 0 7 -10t-9 -25 q-46 -77 -46 -166q0 -204 487 -204q235 0 408 32q367 68 367 165q0 60 -170 180q-126 89 -227 139q-24 25 -24 143q0 99 20 124q160 141 955 410zM878 601q0 -64 -53 -126t-115 -62q-95 0 -165 65q-7 7 -9 12q3 1 6 3q50 -9 94 -9q122 0 144 50q4 10 -75 38q-84 30 -84 69 q0 52 42 119q57 90 160 130q27 7 27 -46q0 -61 -28 -72q-104 -28 -104 -57q0 -1 80 -35.5t80 -78.5z" />
<glyph unicode="&#x6cc;" horiz-adv-x="1306" arabic-form="isolated" d="M1305 615q0 -23 -14 -76t-19 -53q-3 0 -48 17t-70 17q-102 0 -213 -86q-105 -82 -105 -144q0 -74 110 -95q57 -9 206 -33q110 -18 110 -73q0 -150 -82 -233q-58 -58 -223 -128q-218 -92 -407 -92q-155 0 -251 68q-108 78 -108 228q0 227 145 431q14 20 24 20q7 0 7 -10 q0 -8 -4 -16q-96 -197 -96 -303q0 -121 103 -191q88 -60 207 -60q238 0 446 92q153 68 153 97q0 12 -219 40q-107 14 -150 49q-51 42 -51 144q0 126 154 294t278 168q31 0 68 -16q49 -21 49 -56z" />
<glyph unicode="&#x67e;" horiz-adv-x="1650" arabic-form="final" d="M1680 1h-57q-53 0 -98.5 31t-61.5 80q-60 -97 -334 -143q-185 -31 -380 -31q-221 0 -361 59q-197 83 -197 274q0 149 83 231q9 9 17 9q16 0 5 -22q-30 -59 -30 -129q0 -100 125 -170q160 -90 475 -90q422 0 540 85q43 31 57 80q5 18 18 18t15 -16q6 -58 22 -76 q26 -29 105 -29h57v-161zM927 -498l81 112l118 -78l-79 -122zM793 -303l78 119l118 -74l65 92l121 -78l-84 -126l-116 74l-57 -87z" />
<glyph unicode="&#x67e;" horiz-adv-x="408" arabic-form="initial" d="M298 264q0 -41 -23 -106q-24 -69 -50 -94q-66 -63 -189 -63h-65v161h67q42 0 106 11q86 15 86 37q0 41 -88 146l68 118q18 32 34 6q54 -89 54 -216zM174 -478l81 112l118 -78l-79 -122zM40 -283l78 119l118 -74l65 92l121 -78l-84 -126l-116 74l-57 -87z" />
<glyph unicode="&#x67e;" horiz-adv-x="426" arabic-form="medial" d="M456 1h-59q-138 0 -187 101q-66 -101 -192 -101h-47v161h77q76 0 121 35q27 21 52 65q20 35 29 35q15 0 27 -51q20 -84 135 -84h44v-161zM164 -478l81 112l118 -78l-79 -122zM30 -283l78 119l118 -74l65 92l121 -78l-84 -126l-116 74l-57 -87z" />
<glyph unicode="&#x686;" horiz-adv-x="1269" arabic-form="final" d="M1384 -714q-145 -66 -333 -141q-90 -21 -235 -21q-282 0 -443 118q-185 135 -185 407q0 242 165 429q123 139 285 204q-152 27 -226 27q-93 0 -134 -20q-15 -7 -21 -2q-7 6 -3 25q34 171 217 171q87 0 259 -24t259 -24h171q14 0 12 -8l-2 -4l-67 -136q-34 0 -180 -16 q0 -50 27 -72q45 -37 179 -37h171v-161h-260q-203 0 -203 145q0 48 24 115q-231 -54 -387 -168q-210 -154 -210 -379q0 -233 244 -346q185 -86 446 -86q234 0 424 34q27 5 27 -10q0 -10 -21 -20zM709 -453l81 112l118 -78l-79 -122zM575 -258l78 119l118 -74l65 92l121 -78 l-84 -126l-116 74l-57 -87z" />
<glyph unicode="&#x686;" horiz-adv-x="1050" arabic-form="initial" d="M1041 362l-42 -133h-116q-225 0 -349 -46q-61 -23 -263 -123q-119 -59 -219 -59h-81v161h88q74 0 209 43q182 58 212 65q17 4 17 9t-17 11q-71 25 -153 53q-76 26 -127 26q-88 0 -144 -23q-19 -8 -27 -1t1 31q60 164 220 164q53 0 157 -43q157 -65 209 -81 q141 -43 289 -43h128q9 0 9 -6q0 -2 -1 -5zM439 -423l81 112l118 -78l-79 -122zM305 -228l78 119l118 -74l65 92l121 -78l-84 -126l-116 74l-57 -87z" />
<glyph unicode="&#x686;" horiz-adv-x="1146" arabic-form="medial" d="M1165 1h-228q-199 0 -199 124q0 40 22 101q-176 -19 -326 -78q-20 -8 -212 -99q-101 -48 -170 -48h-81v161h88q75 0 209 44q183 60 212 66q20 4 20 9t-20 11q-44 14 -158 51q-81 26 -132 26q-78 0 -134 -23q-19 -8 -27 -1t1 31q60 164 220 164q53 0 157 -43 q157 -65 209 -81q141 -43 289 -43h128q9 0 9 -6q0 -2 -1 -5l-42 -133h-169q0 -48 59 -61q27 -6 113 -6h163v-161zM549 -423l81 112l118 -78l-79 -122zM415 -228l78 119l118 -74l65 92l121 -78l-84 -126l-116 74l-57 -87z" />
<glyph unicode="&#x698;" horiz-adv-x="807" arabic-form="final" d="M838 1h-55q-52 0 -61 -57q-23 -145 -128 -286q-125 -168 -274 -168q-78 0 -203 75q-28 17 -28 30t25 13q6 0 18 -2q58 -10 105 -10q86 0 150 39q53 32 136 122q38 41 75 99q48 75 48 112q0 34 -92 134l63 143q8 19 22 1q66 -84 122 -84h77v-161zM633 818l-81 -112 l-118 78l79 122zM767 623l-78 -119l-118 74l-65 -92l-121 78l84 126l116 -74l57 87z" />
<glyph unicode="&#x6af;" horiz-adv-x="2116" arabic-form="final" d="M2090 1593q-14 -53 -78 -135q-197 -54 -429 -144q-330 -128 -483 -242l-4 38q3 44 7 48q115 125 437 256q256 104 550 179zM2146 1h-70q-80 0 -231 141q-237 222 -269 245q16 -43 16 -87q0 -138 -136 -214q-83 -46 -259 -81q-238 -47 -519 -47q-487 0 -487 298 q0 134 97 255q10 13 21 15q10 2 10 -8q0 -8 -8 -21q-49 -81 -49 -170q0 -204 488 -204q260 0 460 36q299 54 299 168q0 65 -152 160q-202 126 -227 151q-47 47 -47 170q0 65 27 92q86 87 419 219q242 96 506 176q-39 -117 -81 -179q-582 -192 -767 -285q-34 -17 -34 -31 q0 -19 44 -41l167 -85q145 -75 230 -134q129 -90 328 -270q120 -108 178 -108h46v-161zM872 601q0 -64 -53 -126t-115 -62q-95 0 -165 65q-7 7 -9 12q3 1 6 3q50 -9 94 -9q122 0 144 50q4 10 -75 38q-84 30 -84 69q0 52 42 119q57 90 160 130q27 7 27 -46q0 -61 -28 -72 q-104 -28 -104 -57q0 -1 80 -35.5t80 -78.5z" />
<glyph unicode="&#x6af;" horiz-adv-x="982" arabic-form="initial" d="M1060 1548q-14 -53 -78 -135q-197 -54 -429 -144q-330 -128 -483 -242l-4 38q3 44 7 48q115 125 437 256q256 104 550 179zM1019 1266q-10 -29 -45 -101q-39 -81 -50 -89q-277 -92 -403 -138q-293 -106 -382 -165q-20 -13 -20 -20q0 -8 22 -21q193 -116 249 -167 q137 -124 137 -274q0 -117 -59 -180q-54 -57 -172 -86q-98 -24 -200 -24h-125v161h69q425 0 425 128q0 55 -172 168q-117 78 -225 131q-24 25 -24 143q0 99 20 124q160 141 955 410z" />
<glyph unicode="&#x6af;" horiz-adv-x="1086" arabic-form="medial" d="M1060 1593q-14 -53 -78 -135q-197 -54 -429 -144q-330 -128 -483 -242l-4 38q3 44 7 48q115 125 437 256q256 104 550 179zM1116 1h-70q-80 0 -231 141q-237 222 -269 245q14 -36 14 -79q0 -115 -62 -188q-102 -120 -477 -120h-51v162h48q208 0 292 17q169 34 169 148 q0 65 -152 160q-202 126 -227 151q-47 47 -47 170q0 65 27 92q86 87 419 219q242 96 506 176q-39 -117 -81 -179q-548 -181 -757 -285q-33 -16 -33 -31q0 -19 43 -41q146 -75 387 -219q85 -51 328 -270q120 -108 178 -108h46v-161z" />
<glyph unicode="&#x622;" horiz-adv-x="714" arabic-form="final" d="M743 1h-85q-122 0 -160 151q-10 40 -35 328q-32 374 -53 509q-2 12 79 124q11 15 18 15q8 0 10 -25l50 -733q8 -117 21 -147q27 -61 113 -61h42v-161zM830 1351q-63 -85 -190 -126q-99 -32 -209 -32q-28 0 -82 10.5t-82 10.5q-31 0 -38 -43q-4 -27 -23 -27q-36 0 -60 35 q-22 31 -22 69q0 87 94 86q39 0 116.5 -13.5t117.5 -13.5q155 0 235 19q35 8 85 29q43 18 50 18q9 0 10 -9q2 -8 -2 -13z" />
<glyph unicode="&#x623;" horiz-adv-x="553" arabic-form="final" d="M583 1h-85q-122 0 -160 151q-10 40 -35 328q-32 374 -53 509q-2 12 79 124q11 15 18 15q8 0 10 -25l50 -733q8 -117 21 -147q27 -61 113 -61h42v-161zM489 1345q-17 -41 -39 -89q-178 -26 -292 -72q4 14 12 32q40 50 90 68q-76 48 -76 82q0 51 53 111t103 60q60 0 60 -50 q0 -51 -21 -77q-8 -10 -15 4q-20 44 -71 44q-38 0 -38 -37q0 -33 44 -64q41 -30 75 -30q25 0 115 18z" />
<glyph unicode="&#x624;" horiz-adv-x="875" arabic-form="final" d="M905 1h-109q-11 -142 -139 -304q-149 -189 -325 -189q-68 0 -182 90q-59 46 -59 63q0 9 17 9q27 0 89 -17t94 -17q121 0 275 118q162 124 162 240q-111 0 -164 19q-76 27 -76 101q0 90 61 197q65 115 135 115q63 0 99 -106q27 -80 27 -158h95v-161zM730 164q-8 41 -34 71 q-30 35 -68 35q-42 0 -42 -52q0 -61 101 -61q23 0 43 7zM834 730q-17 -41 -39 -89q-178 -26 -292 -72q4 14 12 32q40 50 90 68q-76 48 -76 82q0 51 53 111t103 60q60 0 60 -50q0 -51 -21 -77q-8 -10 -15 4q-20 44 -71 44q-38 0 -38 -37q0 -33 44 -64q41 -30 75 -30 q25 0 115 18z" />
<glyph unicode="&#x625;" horiz-adv-x="573" arabic-form="final" d="M603 1h-85q-122 0 -160 151q-10 40 -35 328q-32 374 -53 509q-2 12 79 124q11 15 18 15q8 0 10 -25l50 -733q8 -117 21 -147q27 -61 113 -61h42v-161zM601 -356q-17 -41 -39 -89q-178 -26 -292 -72q4 14 12 32q40 50 90 68q-76 48 -76 82q0 51 53 111t103 60q60 0 60 -50 q0 -51 -21 -77q-8 -10 -15 4q-20 44 -71 44q-38 0 -38 -37q0 -33 44 -64q41 -30 75 -30q25 0 115 18z" />
<glyph unicode="&#x626;" horiz-adv-x="1257" arabic-form="final" d="M1288 1h-182q-67 0 -132 -29q-58 -26 -58 -43q0 -15 74 -29q158 -29 174 -35q75 -26 75 -90q0 -85 -36 -134q-86 -116 -282 -178q-163 -51 -337 -51q-167 0 -272 73q-121 84 -121 244q0 210 113 361q17 23 26 23q6 0 6 -10q0 -14 -11 -36q-58 -118 -58 -221 q0 -143 127 -213q103 -57 257 -57q181 0 352 53q154 48 154 85q0 18 -62 29q-37 6 -131 21q-159 26 -159 109q0 91 107 186q117 103 262 103h114v-161zM554 332q-17 -41 -39 -89q-178 -26 -292 -72q4 14 12 32q40 50 90 68q-76 48 -76 82q0 51 53 111t103 60q60 0 60 -50 q0 -51 -21 -77q-8 -10 -15 4q-20 44 -71 44q-38 0 -38 -37q0 -33 44 -64q41 -30 75 -30q25 0 115 18z" />
<glyph unicode="&#x626;" horiz-adv-x="355" arabic-form="initial" d="M298 264q0 -41 -23 -106q-24 -69 -50 -94q-66 -63 -189 -63h-65v161h67q42 0 106 11q86 15 86 37q0 41 -88 146l68 118q18 32 34 6q54 -89 54 -216zM359 780q-17 -41 -39 -89q-178 -26 -292 -72q4 14 12 32q40 50 90 68q-76 48 -76 82q0 51 53 111t103 60q60 0 60 -50 q0 -51 -21 -77q-8 -10 -15 4q-20 44 -71 44q-38 0 -38 -37q0 -33 44 -64q41 -30 75 -30q25 0 115 18z" />
<glyph unicode="&#x626;" horiz-adv-x="426" arabic-form="medial" d="M456 1h-59q-138 0 -187 101q-66 -101 -192 -101h-47v161h77q76 0 121 35q27 21 52 65q20 35 29 35q15 0 27 -51q20 -84 135 -84h44v-161zM364 690q-17 -41 -39 -89q-178 -26 -292 -72q4 14 12 32q40 50 90 68q-76 48 -76 82q0 51 53 111t103 60q60 0 60 -50 q0 -51 -21 -77q-8 -10 -15 4q-20 44 -71 44q-38 0 -38 -37q0 -33 44 -64q41 -30 75 -30q25 0 115 18z" />
<glyph unicode="&#x627;" horiz-adv-x="493" arabic-form="final" d="M523 1h-85q-122 0 -160 151q-10 40 -35 328q-32 374 -53 509q-2 12 79 124q11 15 18 15q8 0 10 -25l50 -733q8 -117 21 -147q27 -61 113 -61h42v-161z" />
<glyph unicode="&#x628;" horiz-adv-x="1650" arabic-form="final" d="M1680 1h-57q-53 0 -98.5 31t-61.5 80q-60 -97 -334 -143q-185 -31 -380 -31q-221 0 -361 59q-197 83 -197 274q0 149 83 231q9 9 17 9q16 0 5 -22q-30 -59 -30 -129q0 -100 125 -170q160 -90 475 -90q422 0 540 85q43 31 57 80q5 18 18 18t15 -16q6 -58 22 -76 q26 -29 105 -29h57v-161zM1034 -420l-92 -137l-134 91l95 138z" />
<glyph unicode="&#x628;" horiz-adv-x="299" arabic-form="initial" d="M298 264q0 -41 -23 -106q-24 -69 -50 -94q-66 -63 -189 -63h-65v161h67q42 0 106 11q86 15 86 37q0 41 -88 146l68 118q18 32 34 6q54 -89 54 -216zM314 -330l-92 -137l-134 91l95 138z" />
<glyph unicode="&#x628;" horiz-adv-x="426" arabic-form="medial" d="M456 1h-59q-138 0 -187 101q-66 -101 -192 -101h-47v161h77q76 0 121 35q27 21 52 65q20 35 29 35q15 0 27 -51q20 -84 135 -84h44v-161zM314 -330l-92 -137l-134 91l95 138z" />
<glyph unicode="&#x629;" horiz-adv-x="748" arabic-form="final" d="M777 1h-69q-88 0 -127 66q-28 47 -48 177q-77 -92 -107 -92q-235 0 -235 66q0 36 28 101t53 91q59 61 220 152l-2 82l48 66q11 15 15 16q5 0 8 -26q13 -119 35 -290q16 -124 37 -178q27 -70 87 -70h57v-161zM519 332l-15 136q-48 -12 -107 -49q-72 -45 -72 -79 q0 -31 74 -31q53 0 120 23zM624 1035q-17 -41 -39 -89q-178 -26 -292 -72q4 14 12 32q40 50 90 68q-76 48 -76 82q0 51 53 111t103 60q60 0 60 -50q0 -51 -21 -77q-8 -10 -15 4q-20 44 -71 44q-38 0 -38 -37q0 -33 44 -64q41 -30 75 -30q25 0 115 18z" />
<glyph unicode="&#x62a;" horiz-adv-x="1650" arabic-form="final" d="M1680 1h-57q-53 0 -98.5 31t-61.5 80q-60 -97 -334 -143q-185 -31 -380 -31q-221 0 -361 59q-197 83 -197 274q0 149 83 231q9 9 17 9q16 0 5 -22q-30 -59 -30 -129q0 -100 125 -170q160 -90 475 -90q422 0 540 85q43 31 57 80q5 18 18 18t15 -16q6 -58 22 -76 q26 -29 105 -29h57v-161zM1037 798l-79 -121l-123 81l-65 -101l-129 89l82 129l120 -81l61 95z" />
<glyph unicode="&#x62a;" horiz-adv-x="424" arabic-form="initial" d="M298 264q0 -41 -23 -106q-24 -69 -50 -94q-66 -63 -189 -63h-65v161h67q42 0 106 11q86 15 86 37q0 41 -88 146l68 118q18 32 34 6q54 -89 54 -216zM421 830l-79 -121l-123 81l-65 -101l-129 89l82 129l120 -81l61 95z" />
<glyph unicode="&#x62a;" horiz-adv-x="426" arabic-form="medial" d="M456 1h-59q-138 0 -187 101q-66 -101 -192 -101h-47v161h77q76 0 121 35q27 21 52 65q20 35 29 35q15 0 27 -51q20 -84 135 -84h44v-161zM397 662l-79 -121l-123 81l-65 -101l-129 89l82 129l120 -81l61 95z" />
<glyph unicode="&#x62b;" horiz-adv-x="1650" arabic-form="final" d="M1680 1h-57q-53 0 -98.5 31t-61.5 80q-60 -97 -334 -143q-185 -31 -380 -31q-221 0 -361 59q-197 83 -197 274q0 149 83 231q9 9 17 9q16 0 5 -22q-30 -59 -30 -129q0 -100 125 -170q160 -90 475 -90q422 0 540 85q43 31 57 80q5 18 18 18t15 -16q6 -58 22 -76 q26 -29 105 -29h57v-161zM897 994l-81 -112l-118 78l79 122zM1031 799l-78 -119l-118 74l-65 -92l-121 78l84 126l116 -74l57 87z" />
<glyph unicode="&#x62b;" horiz-adv-x="400" arabic-form="initial" d="M298 264q0 -41 -23 -106q-24 -69 -50 -94q-66 -63 -189 -63h-65v161h67q42 0 106 11q86 15 86 37q0 41 -88 146l68 118q18 32 34 6q54 -89 54 -216zM259 1026l-81 -112l-118 78l79 122zM393 831l-78 -119l-118 74l-65 -92l-121 78l84 126l116 -74l57 87z" />
<glyph unicode="&#x62b;" horiz-adv-x="426" arabic-form="medial" d="M456 1h-59q-138 0 -187 101q-66 -101 -192 -101h-47v161h77q76 0 121 35q27 21 52 65q20 35 29 35q15 0 27 -51q20 -84 135 -84h44v-161zM259 866l-81 -112l-118 78l79 122zM393 671l-78 -119l-118 74l-65 -92l-121 78l84 126l116 -74l57 87z" />
<glyph unicode="&#x62c;" horiz-adv-x="1269" arabic-form="final" d="M1384 -714q-145 -66 -333 -141q-90 -21 -235 -21q-282 0 -443 118q-185 135 -185 407q0 242 165 429q123 139 285 204q-152 27 -226 27q-93 0 -134 -20q-15 -7 -21 -2q-7 6 -3 25q34 171 217 171q87 0 259 -24t259 -24h171q14 0 12 -8l-2 -4l-67 -136q-34 0 -180 -16 q0 -50 27 -72q45 -37 179 -37h171v-161h-260q-203 0 -203 145q0 48 24 115q-231 -54 -387 -168q-210 -154 -210 -379q0 -233 244 -346q185 -86 446 -86q234 0 424 34q27 5 27 -10q0 -10 -21 -20zM844 -250l-92 -137l-134 91l95 138z" />
<glyph unicode="&#x62c;" horiz-adv-x="1050" arabic-form="initial" d="M1041 362l-42 -133h-116q-225 0 -349 -46q-61 -23 -263 -123q-119 -59 -219 -59h-81v161h88q74 0 209 43q182 58 212 65q17 4 17 9t-17 11q-71 25 -153 53q-76 26 -127 26q-88 0 -144 -23q-19 -8 -27 -1t1 31q60 164 220 164q53 0 157 -43q157 -65 209 -81 q141 -43 289 -43h128q9 0 9 -6q0 -2 -1 -5zM604 -210l-92 -137l-134 91l95 138z" />
<glyph unicode="&#x62c;" horiz-adv-x="1146" arabic-form="medial" d="M1165 1h-228q-199 0 -199 124q0 40 22 101q-176 -19 -326 -78q-20 -8 -212 -99q-101 -48 -170 -48h-81v161h88q75 0 209 44q183 60 212 66q20 4 20 9t-20 11q-44 14 -158 51q-81 26 -132 26q-78 0 -134 -23q-19 -8 -27 -1t1 31q60 164 220 164q53 0 157 -43 q157 -65 209 -81q141 -43 289 -43h128q9 0 9 -6q0 -2 -1 -5l-42 -133h-169q0 -48 59 -61q27 -6 113 -6h163v-161zM564 -210l-92 -137l-134 91l95 138z" />
<glyph unicode="&#x62d;" horiz-adv-x="1269" arabic-form="final" d="M1384 -714q-145 -66 -333 -141q-90 -21 -235 -21q-282 0 -443 118q-185 135 -185 407q0 242 165 429q123 139 285 204q-152 27 -226 27q-93 0 -134 -20q-15 -7 -21 -2q-7 6 -3 25q34 171 217 171q87 0 259 -24t259 -24h171q14 0 12 -8l-2 -4l-67 -136q-34 0 -180 -16 q0 -50 27 -72q45 -37 179 -37h171v-161h-260q-203 0 -203 145q0 48 24 115q-231 -54 -387 -168q-210 -154 -210 -379q0 -233 244 -346q185 -86 446 -86q234 0 424 34q27 5 27 -10q0 -10 -21 -20z" />
<glyph unicode="&#x62d;" horiz-adv-x="1050" arabic-form="initial" d="M1041 362l-42 -133h-116q-225 0 -349 -46q-61 -23 -263 -123q-119 -59 -219 -59h-81v161h88q74 0 209 43q182 58 212 65q17 4 17 9t-17 11q-71 25 -153 53q-76 26 -127 26q-88 0 -144 -23q-19 -8 -27 -1t1 31q60 164 220 164q53 0 157 -43q157 -65 209 -81 q141 -43 289 -43h128q9 0 9 -6q0 -2 -1 -5z" />
<glyph unicode="&#x62d;" horiz-adv-x="1146" arabic-form="medial" d="M1165 1h-228q-199 0 -199 124q0 40 22 101q-176 -19 -326 -78q-20 -8 -212 -99q-101 -48 -170 -48h-81v161h88q75 0 209 44q183 60 212 66q20 4 20 9t-20 11q-44 14 -158 51q-81 26 -132 26q-78 0 -134 -23q-19 -8 -27 -1t1 31q60 164 220 164q53 0 157 -43 q157 -65 209 -81q141 -43 289 -43h128q9 0 9 -6q0 -2 -1 -5l-42 -133h-169q0 -48 59 -61q27 -6 113 -6h163v-161z" />
<glyph unicode="&#x62e;" horiz-adv-x="1269" arabic-form="final" d="M1384 -714q-145 -66 -333 -141q-90 -21 -235 -21q-282 0 -443 118q-185 135 -185 407q0 242 165 429q123 139 285 204q-152 27 -226 27q-93 0 -134 -20q-15 -7 -21 -2q-7 6 -3 25q34 171 217 171q87 0 259 -24t259 -24h171q14 0 12 -8l-2 -4l-67 -136q-34 0 -180 -16 q0 -50 27 -72q45 -37 179 -37h171v-161h-260q-203 0 -203 145q0 48 24 115q-231 -54 -387 -168q-210 -154 -210 -379q0 -233 244 -346q185 -86 446 -86q234 0 424 34q27 5 27 -10q0 -10 -21 -20zM759 845l-92 -137l-134 91l95 138z" />
<glyph unicode="&#x62e;" horiz-adv-x="1050" arabic-form="initial" d="M1041 362l-42 -133h-116q-225 0 -349 -46q-61 -23 -263 -123q-119 -59 -219 -59h-81v161h88q74 0 209 43q182 58 212 65q17 4 17 9t-17 11q-71 25 -153 53q-76 26 -127 26q-88 0 -144 -23q-19 -8 -27 -1t1 31q60 164 220 164q53 0 157 -43q157 -65 209 -81 q141 -43 289 -43h128q9 0 9 -6q0 -2 -1 -5zM714 845l-92 -137l-134 91l95 138z" />
<glyph unicode="&#x62e;" horiz-adv-x="1146" arabic-form="medial" d="M1165 1h-228q-199 0 -199 124q0 40 22 101q-176 -19 -326 -78q-20 -8 -212 -99q-101 -48 -170 -48h-81v161h88q75 0 209 44q183 60 212 66q20 4 20 9t-20 11q-44 14 -158 51q-81 26 -132 26q-78 0 -134 -23q-19 -8 -27 -1t1 31q60 164 220 164q53 0 157 -43 q157 -65 209 -81q141 -43 289 -43h128q9 0 9 -6q0 -2 -1 -5l-42 -133h-169q0 -48 59 -61q27 -6 113 -6h163v-161zM454 915l-92 -137l-134 91l95 138z" />
<glyph unicode="&#x62f;" horiz-adv-x="996" arabic-form="final" d="M1026 1h-81q-163 0 -205 247q-82 -208 -328 -208q-72 0 -130 15q-91 24 -91 75q0 26 43 166q7 24 20 24q16 0 18 -28q8 -94 176 -94q272 0 272 154q0 67 -27 199t-27 199q0 27 62 126q11 17 17 17q9 0 12 -25l71 -514q27 -192 133 -192h65v-161z" />
<glyph unicode="&#x630;" horiz-adv-x="996" arabic-form="final" d="M1026 1h-81q-163 0 -205 247q-82 -208 -328 -208q-72 0 -130 15q-91 24 -91 75q0 26 43 166q7 24 20 24q16 0 18 -28q8 -94 176 -94q272 0 272 154q0 67 -27 199t-27 199q0 27 62 126q11 17 17 17q9 0 12 -25l71 -514q27 -192 133 -192h65v-161zM784 1125l-92 -137 l-134 91l95 138z" />
<glyph unicode="&#x631;" horiz-adv-x="807" arabic-form="final" d="M838 1h-55q-52 0 -61 -57q-23 -145 -128 -286q-125 -168 -274 -168q-78 0 -203 75q-28 17 -28 30t25 13q6 0 18 -2q58 -10 105 -10q86 0 150 39q53 32 136 122q38 41 75 99q48 75 48 112q0 34 -92 134l63 143q8 19 22 1q66 -84 122 -84h77v-161z" />
<glyph unicode="&#x632;" horiz-adv-x="807" arabic-form="final" d="M838 1h-55q-52 0 -61 -57q-23 -145 -128 -286q-125 -168 -274 -168q-78 0 -203 75q-28 17 -28 30t25 13q6 0 18 -2q58 -10 105 -10q86 0 150 39q53 32 136 122q38 41 75 99q48 75 48 112q0 34 -92 134l63 143q8 19 22 1q66 -84 122 -84h77v-161zM709 670l-92 -137 l-134 91l95 138z" />
<glyph unicode="&#x633;" horiz-adv-x="1924" arabic-form="final" d="M1953 1h-63q-108 0 -176 155q-75 -150 -180 -150q-104 0 -142 120q-41 -69 -87 -92q-65 -33 -215 -33q-21 -281 -150 -416q-137 -144 -414 -144q-145 0 -237 79q-98 83 -98 226q0 153 137 309q8 9 16 10q8 0 8 -7t-7 -16q-81 -105 -81 -224q0 -107 113 -167 q92 -49 209 -49q107 0 213 31q130 38 179 109q29 42 29 208q0 59 -20 91q-12 20 -48 69q-8 11 0 26l59 115q15 29 31 0q31 -55 49 -70q24 -20 71 -20q90 0 126 8q62 14 111 61q18 18 41 58q16 29 33 29q12 0 13 -33q2 -43 16 -63q24 -33 91 -33q49 0 83 36q11 12 39 61 q18 31 25 31q14 0 22 -38q40 -116 143 -116h61v-161z" />
<glyph unicode="&#x633;" horiz-adv-x="930" arabic-form="initial" d="M928 329q0 -85 -34 -153q-42 -84 -114 -84q-91 0 -164 82q-117 -153 -214 -153q-73 0 -110 25q-27 18 -55 68q-75 -113 -206 -113h-61v161h79q99 0 156 44q34 27 61 83q21 44 38 44q12 0 12 -19q0 -9 -1.5 -26.5t-1.5 -26.5q0 -77 97 -77q84 0 139 58q34 36 65 108 q25 58 34 58q17 0 22 -44q6 -53 30 -74q39 -34 80 -42q66 -12 66 18q0 27 -35 56q13 61 38 139q9 28 33 4q46 -46 46 -136z" />
<glyph unicode="&#x633;" horiz-adv-x="1000" arabic-form="medial" d="M1030 1h-74q-42 0 -79 40q-32 34 -45 79q-50 -113 -131 -113q-91 0 -143 127q-88 -127 -186 -127q-99 0 -136 109q-85 -115 -195 -115h-69v161h92q139 0 198 121q21 43 33 43q18 0 18 -30q0 4 0 -1q-1 -6 -1 -16v-17q0 -83 88 -83q75 0 121 38q27 22 52 71q20 38 33 38 q15 0 16 -39q2 -51 13 -72q21 -39 83 -39q51 0 80 39q16 21 35 72q15 39 28 39q16 0 21 -43q6 -56 19 -78q25 -43 87 -43h42v-161z" />
<glyph unicode="&#x634;" horiz-adv-x="1924" arabic-form="final" d="M1953 1h-63q-108 0 -176 155q-75 -150 -180 -150q-104 0 -142 120q-41 -69 -87 -92q-65 -33 -215 -33q-21 -281 -150 -416q-137 -144 -414 -144q-145 0 -237 79q-98 83 -98 226q0 153 137 309q8 9 16 10q8 0 8 -7t-7 -16q-81 -105 -81 -224q0 -107 113 -167 q92 -49 209 -49q107 0 213 31q130 38 179 109q29 42 29 208q0 59 -20 91q-12 20 -48 69q-8 11 0 26l59 115q15 29 31 0q31 -55 49 -70q24 -20 71 -20q90 0 126 8q62 14 111 61q18 18 41 58q16 29 33 29q12 0 13 -33q2 -43 16 -63q24 -33 91 -33q49 0 83 36q11 12 39 61 q18 31 25 31q14 0 22 -38q40 -116 143 -116h61v-161zM1559 890l-81 -112l-118 78l79 122zM1693 695l-78 -119l-118 74l-65 -92l-121 78l84 126l116 -74l57 87z" />
<glyph unicode="&#x634;" horiz-adv-x="935" arabic-form="initial" d="M928 329q0 -85 -34 -153q-42 -84 -114 -84q-91 0 -164 82q-117 -153 -214 -153q-73 0 -110 25q-27 18 -55 68q-75 -113 -206 -113h-61v161h79q99 0 156 44q34 27 61 83q21 44 38 44q12 0 12 -19q0 -9 -1.5 -26.5t-1.5 -26.5q0 -77 97 -77q84 0 139 58q34 36 65 108 q25 58 34 58q17 0 22 -44q6 -53 30 -74q39 -34 80 -42q66 -12 66 18q0 27 -35 56q13 61 38 139q9 28 33 4q46 -46 46 -136zM633 946l-81 -112l-118 78l79 122zM767 751l-78 -119l-118 74l-65 -92l-121 78l84 126l116 -74l57 87z" />
<glyph unicode="&#x634;" horiz-adv-x="1000" arabic-form="medial" d="M1030 1h-74q-42 0 -79 40q-32 34 -45 79q-50 -113 -131 -113q-91 0 -143 127q-88 -127 -186 -127q-99 0 -136 109q-85 -115 -195 -115h-69v161h92q139 0 198 121q21 43 33 43q18 0 18 -30q0 4 0 -1q-1 -6 -1 -16v-17q0 -83 88 -83q75 0 121 38q27 22 52 71q20 38 33 38 q15 0 16 -39q2 -51 13 -72q21 -39 83 -39q51 0 80 39q16 21 35 72q15 39 28 39q16 0 21 -43q6 -56 19 -78q25 -43 87 -43h42v-161zM601 902l-81 -112l-118 78l79 122zM735 707l-78 -119l-118 74l-65 -92l-121 78l84 126l116 -74l57 87z" />
<glyph unicode="&#x635;" horiz-adv-x="2132" arabic-form="final" d="M2161 1h-855q-2 -4 -39 -95q-18 -44 -33 -44q-19 0 -19 39q0 37 17 100h-142q-20 -280 -150 -416q-138 -144 -414 -144q-145 0 -237 79q-98 83 -98 226q0 153 137 309q8 9 16 10q8 0 8 -7t-7 -16q-81 -105 -81 -224q0 -107 113 -167q92 -49 209 -49q107 0 213 31 q130 38 179 109q29 42 29 208q0 59 -20 91q-12 20 -48 69q-8 11 0 26l59 115q13 26 31 0q37 -54 54 -68q26 -21 66 -21h42q84 0 127 42q56 57 207 201q180 165 346 165q170 0 170 -173q0 -186 -315 -319q53 5 189 46q126 38 185 38h61v-161zM1920 322q0 34 -61 60 q-51 21 -91 21q-99 0 -219 -89q-92 -68 -156 -153q172 4 357 65q170 56 170 96z" />
<glyph unicode="&#x635;" horiz-adv-x="1262" arabic-form="initial" d="M1261 397q0 -210 -299 -315q-193 -68 -436 -77q-5 -10 -39 -97q-18 -46 -33 -46q-19 0 -19 39q0 37 17 100q-127 0 -172 15q-64 21 -99 98q-70 -113 -163 -113h-47v161h67q94 0 171 101q27 36 33 36q12 0 14 -24q3 -34 5 -41q14 -47 54 -62q27 -10 96 -10q84 0 127 42 q56 57 207 201q180 165 346 165q170 0 170 -173zM1140 322q0 34 -61 60q-51 21 -91 21q-99 0 -219 -89q-92 -68 -156 -153q172 4 357 65q170 56 170 96z" />
<glyph unicode="&#x635;" horiz-adv-x="1351" arabic-form="medial" d="M1381 1h-855q-2 -4 -39 -95q-18 -44 -33 -44q-19 0 -19 39q0 37 17 100q-127 0 -172 15q-64 21 -99 98q-67 -113 -163 -113h-47v161h67q94 0 171 101q27 36 33 36q12 0 14 -24q3 -34 5 -41q14 -47 54 -62q27 -10 96 -10q84 0 127 42q56 57 207 201q180 165 346 165 q170 0 170 -173q0 -186 -315 -319q53 5 189 46q126 38 185 38h61v-161zM1140 322q0 34 -61 60q-51 21 -91 21q-99 0 -219 -89q-92 -68 -156 -153q172 4 357 65q170 56 170 96z" />
<glyph unicode="&#x636;" horiz-adv-x="2132" arabic-form="final" d="M2161 1h-855q-2 -4 -39 -95q-18 -44 -33 -44q-19 0 -19 39q0 37 17 100h-142q-20 -280 -150 -416q-138 -144 -414 -144q-145 0 -237 79q-98 83 -98 226q0 153 137 309q8 9 16 10q8 0 8 -7t-7 -16q-81 -105 -81 -224q0 -107 113 -167q92 -49 209 -49q107 0 213 31 q130 38 179 109q29 42 29 208q0 59 -20 91q-12 20 -48 69q-8 11 0 26l59 115q13 26 31 0q37 -54 54 -68q26 -21 66 -21h42q84 0 127 42q56 57 207 201q180 165 346 165q170 0 170 -173q0 -186 -315 -319q53 5 189 46q126 38 185 38h61v-161zM1920 322q0 34 -61 60 q-51 21 -91 21q-99 0 -219 -89q-92 -68 -156 -153q172 4 357 65q170 56 170 96zM1824 940l-92 -137l-134 91l95 138z" />
<glyph unicode="&#x636;" horiz-adv-x="1262" arabic-form="initial" d="M1261 397q0 -210 -299 -315q-193 -68 -436 -77q-5 -10 -39 -97q-18 -46 -33 -46q-19 0 -19 39q0 37 17 100q-127 0 -172 15q-64 21 -99 98q-70 -113 -163 -113h-47v161h67q94 0 171 101q27 36 33 36q12 0 14 -24q3 -34 5 -41q14 -47 54 -62q27 -10 96 -10q84 0 127 42 q56 57 207 201q180 165 346 165q170 0 170 -173zM1140 322q0 34 -61 60q-51 21 -91 21q-99 0 -219 -89q-92 -68 -156 -153q172 4 357 65q170 56 170 96zM1054 940l-92 -137l-134 91l95 138z" />
<glyph unicode="&#x636;" horiz-adv-x="1351" arabic-form="medial" d="M1381 1h-855q-2 -4 -39 -95q-18 -44 -33 -44q-19 0 -19 39q0 37 17 100q-127 0 -172 15q-64 21 -99 98q-67 -113 -163 -113h-47v161h67q94 0 171 101q27 36 33 36q12 0 14 -24q3 -34 5 -41q14 -47 54 -62q27 -10 96 -10q84 0 127 42q56 57 207 201q180 165 346 165 q170 0 170 -173q0 -186 -315 -319q53 5 189 46q126 38 185 38h61v-161zM1140 322q0 34 -61 60q-51 21 -91 21q-99 0 -219 -89q-92 -68 -156 -153q172 4 357 65q170 56 170 96zM1054 940l-92 -137l-134 91l95 138z" />
<glyph unicode="&#x637;" horiz-adv-x="1406" arabic-form="final" d="M1436 1h-1012q-34 0 -117 52q-79 49 -105 81q-10 12 -10 23q0 20 29 20q7 0 13 -1q106 -17 200 -17q166 0 196 82q18 50 18 176q0 202 -26 377q-12 57 -34 171q-26 135 -11 164l42 85q11 23 24 4l87 -129q-40 -51 -40 -123q0 29 1 30q5 -22 13 -155q14 -225 14 -298 q0 -133 -14 -251q93 104 216 185q140 92 229 92q75 0 124.5 -44t49.5 -118q0 -109 -87 -201q-76 -82 -188 -120q55 10 178 48q92 28 149 28h61v-161zM1212 321q0 34 -68 60q-55 21 -97 21q-157 0 -387 -241q196 0 388 70q164 60 164 90z" />
<glyph unicode="&#x637;" horiz-adv-x="874" arabic-form="initial" d="M873 405q0 -115 -96 -201q-226 -203 -646 -203h-161v161h61q120 0 149 79q18 50 18 176q0 202 -26 377q-12 57 -34 171q-26 135 -11 164l42 85q11 23 24 4l87 -129q-40 -51 -40 -123q0 29 1 30q5 -22 13 -155q14 -225 14 -298q0 -133 -14 -251q93 104 216 185 q140 92 229 92q75 0 124.5 -45t49.5 -119zM762 321q0 34 -68 60q-55 21 -97 21q-157 0 -387 -241q196 0 388 70q164 60 164 90z" />
<glyph unicode="&#x637;" horiz-adv-x="946" arabic-form="medial" d="M986 1h-1016v161h46q135 0 164 79q18 50 18 176q0 202 -26 377q-12 57 -34 171q-26 135 -11 164l42 85q11 23 24 4l87 -129q-40 -51 -40 -123q0 29 1 30q5 -22 13 -155q14 -225 14 -298q0 -133 -14 -251q93 104 216 185q140 92 229 92q75 0 124.5 -44t49.5 -118 q0 -109 -87 -201q-76 -82 -188 -120q51 10 182 49q91 27 145 27h61v-161zM762 321q0 34 -68 60q-55 21 -97 21q-157 0 -387 -241q196 0 388 70q164 60 164 90z" />
<glyph unicode="&#x638;" horiz-adv-x="1406" arabic-form="final" d="M1436 1h-1012q-34 0 -117 52q-79 49 -105 81q-10 12 -10 23q0 20 29 20q7 0 13 -1q106 -17 200 -17q166 0 196 82q18 50 18 176q0 202 -26 377q-12 57 -34 171q-26 135 -11 164l42 85q11 23 24 4l87 -129q-40 -51 -40 -123q0 29 1 30q5 -22 13 -155q14 -225 14 -298 q0 -133 -14 -251q93 104 216 185q140 92 229 92q75 0 124.5 -44t49.5 -118q0 -109 -87 -201q-76 -82 -188 -120q55 10 178 48q92 28 149 28h61v-161zM1212 321q0 34 -68 60q-55 21 -97 21q-157 0 -387 -241q196 0 388 70q164 60 164 90zM1130 956l-92 -137l-134 91l95 138z " />
<glyph unicode="&#x638;" horiz-adv-x="874" arabic-form="initial" d="M873 405q0 -115 -96 -201q-226 -203 -646 -203h-161v161h61q120 0 149 79q18 50 18 176q0 202 -26 377q-12 57 -34 171q-26 135 -11 164l42 85q11 23 24 4l87 -129q-40 -51 -40 -123q0 29 1 30q5 -22 13 -155q14 -225 14 -298q0 -133 -14 -251q93 104 216 185 q140 92 229 92q75 0 124.5 -45t49.5 -119zM762 321q0 34 -68 60q-55 21 -97 21q-157 0 -387 -241q196 0 388 70q164 60 164 90zM680 956l-92 -137l-134 91l95 138z" />
<glyph unicode="&#x638;" horiz-adv-x="946" arabic-form="medial" d="M986 1h-1016v161h46q135 0 164 79q18 50 18 176q0 202 -26 377q-12 57 -34 171q-26 135 -11 164l42 85q11 23 24 4l87 -129q-40 -51 -40 -123q0 29 1 30q5 -22 13 -155q14 -225 14 -298q0 -133 -14 -251q93 104 216 185q140 92 229 92q75 0 124.5 -44t49.5 -118 q0 -109 -87 -201q-76 -82 -188 -120q51 10 182 49q91 27 145 27h61v-161zM762 321q0 34 -68 60q-55 21 -97 21q-157 0 -387 -241q196 0 388 70q164 60 164 90zM680 956l-92 -137l-134 91l95 138z" />
<glyph unicode="&#x639;" horiz-adv-x="940" arabic-form="final" d="M1266 -822q-49 -23 -178 -79q-132 -54 -331 -54q-565 0 -565 515q0 197 97 378q93 175 255 296q-51 35 -168 62q10 81 93 140q79 56 163 56q85 0 162 -45q86 -50 86 -123q0 -47 -134 -108q63 -54 180 -54h43v-161h-61q-73 0 -176 82l-102 81q-112 -35 -225 -171 q-138 -167 -138 -357q0 -199 158 -313q134 -98 345 -114q285 -22 491 21q34 7 55 7q26 0 26 -10q0 -15 -76 -49z" />
<glyph unicode="&#x639;" horiz-adv-x="780" arabic-form="initial" d="M779 393q0 -19 -12 -75q-13 -61 -21 -64l-421 -176q-184 -77 -290 -77h-65v161h55q111 0 170 24q-89 69 -89 148q0 93 105 208q110 121 215 121q120 0 206 -88q26 -27 26 -41q0 -12 -16 -12q-10 0 -28 6q-35 12 -120 12q-175 0 -270 -112q72 -126 188 -145q39 -2 121 30 q9 4 224 93q5 2 8 3q14 4 14 -16z" />
<glyph unicode="&#x639;" horiz-adv-x="664" arabic-form="medial" d="M694 1h-61q-90 0 -167 64q-25 21 -128 111q-27 -12 -158 -108q-91 -67 -162 -67h-47v161h46q136 0 231 74q-11 15 -177 90q10 81 93 140q79 56 163 56q87 0 164 -43q87 -48 87 -121q0 -68 -136 -130q29 -25 89 -45.5t100 -20.5h63v-161z" />
<glyph unicode="&#x63a;" horiz-adv-x="940" arabic-form="final" d="M1266 -822q-49 -23 -178 -79q-132 -54 -331 -54q-565 0 -565 515q0 197 97 378q93 175 255 296q-51 35 -168 62q10 81 93 140q79 56 163 56q85 0 162 -45q86 -50 86 -123q0 -47 -134 -108q63 -54 180 -54h43v-161h-61q-73 0 -176 82l-102 81q-112 -35 -225 -171 q-138 -167 -138 -357q0 -199 158 -313q134 -98 345 -114q285 -22 491 21q34 7 55 7q26 0 26 -10q0 -15 -76 -49zM738 828l-92 -137l-134 91l95 138z" />
<glyph unicode="&#x63a;" horiz-adv-x="780" arabic-form="initial" d="M779 393q0 -19 -12 -75q-13 -61 -21 -64l-421 -176q-184 -77 -290 -77h-65v161h55q111 0 170 24q-89 69 -89 148q0 93 105 208q110 121 215 121q120 0 206 -88q26 -27 26 -41q0 -12 -16 -12q-10 0 -28 6q-35 12 -120 12q-175 0 -270 -112q72 -126 188 -145q39 -2 121 30 q9 4 224 93q5 2 8 3q14 4 14 -16zM428 1008l-92 -137l-134 91l95 138z" />
<glyph unicode="&#x63a;" horiz-adv-x="664" arabic-form="medial" d="M694 1h-61q-90 0 -167 64q-25 21 -128 111q-27 -12 -158 -108q-91 -67 -162 -67h-47v161h46q136 0 231 74q-11 15 -177 90q10 81 93 140q79 56 163 56q87 0 164 -43q87 -48 87 -121q0 -68 -136 -130q29 -25 89 -45.5t100 -20.5h63v-161zM418 868l-92 -137l-134 91l95 138 z" />
<glyph unicode="&#x641;" horiz-adv-x="1873" arabic-form="final" d="M1903 1h-110q-118 0 -245 57q-164 -122 -642 -190q-125 -18 -312 -9q-403 19 -403 341q0 137 96 230q13 13 22 13q8 0 8 -11q0 -12 -11 -29q-43 -65 -43 -150q0 -121 141 -182q106 -46 244 -46h122q352 0 638 119q-53 31 -53 121q0 37 9 71q19 72 97 178q87 118 147 118 q55 0 93 -90q31 -73 31 -138q0 -147 -54 -220q25 -22 121 -22h104v-161zM1660 328q0 30 -27 71q-29 45 -57 45q-38 0 -87 -44t-49 -82q0 -30 47 -61q41 -27 63 -27q17 0 61 33q49 37 49 65zM1392 922l-92 -137l-134 91l95 138z" />
<glyph unicode="&#x641;" horiz-adv-x="456" arabic-form="initial" d="M457 357q0 -175 -55 -237q-47 -53 -167 -89q-100 -30 -174 -30h-102v161h59q97 0 192 19q126 25 173 73q9 9 9 31q0 50 -31 78q-32 -101 -163 -101q-56 0 -93.5 35t-37.5 90q0 86 55 187q61 112 135 112q64 0 127 -87q73 -100 73 -242zM295 440q0 30 -30 61.5t-60 31.5 q-54 0 -54 -95q0 -39 54 -39q23 0 53 10q37 12 37 31zM314 1018l-92 -137l-134 91l95 138z" />
<glyph unicode="&#x641;" horiz-adv-x="654" arabic-form="medial" d="M683 1h-100q-165 0 -277 91q-40 -30 -111 -58q-85 -33 -156 -33h-69v161h47q130 0 179 26q-29 45 -29 103q0 105 129 246q96 105 160 105q56 0 84 -74q20 -53 20 -122q0 -56 -27 -135q-30 -89 -69 -115q37 -34 165 -34h54v-161zM484 345q0 35 -33 76t-67 41t-82.5 -39 t-48.5 -72q0 -30 34.5 -65t64.5 -35q31 0 81.5 32.5t50.5 61.5zM516 1018l-92 -137l-134 91l95 138z" />
<glyph unicode="&#x642;" horiz-adv-x="1138" arabic-form="final" d="M1168 1h-110q-15 -158 -94 -245q-183 -203 -453 -203q-151 0 -235.5 82.5t-84.5 233.5q0 197 130 335q11 12 23 12q7 0 7 -6q0 -7 -10 -21q-28 -40 -56.5 -122t-28.5 -129q0 -106 95 -169q83 -56 194 -56q124 0 245 45q211 78 211 234q-59 -8 -104 -8q-162 0 -162 109 q0 86 62 187q66 108 136 108q106 0 125 -226h110v-161zM995 152q-37 95 -97 95q-23 0 -42.5 -17t-19.5 -40q0 -43 91 -43q30 0 68 5zM1069 806l-79 -121l-123 81l-65 -101l-129 89l82 129l120 -81l61 95z" />
<glyph unicode="&#x642;" horiz-adv-x="456" arabic-form="initial" d="M457 357q0 -175 -55 -237q-47 -53 -167 -89q-100 -30 -174 -30h-102v161h59q97 0 192 19q126 25 173 73q9 9 9 31q0 50 -31 78q-32 -101 -163 -101q-56 0 -93.5 35t-37.5 90q0 86 55 187q61 112 135 112q64 0 127 -87q73 -100 73 -242zM295 440q0 30 -30 61.5t-60 31.5 q-54 0 -54 -95q0 -39 54 -39q23 0 53 10q37 12 37 31zM465 1022l-79 -121l-123 81l-65 -101l-129 89l82 129l120 -81l61 95z" />
<glyph unicode="&#x642;" horiz-adv-x="654" arabic-form="medial" d="M683 1h-100q-165 0 -277 91q-40 -30 -111 -58q-85 -33 -156 -33h-69v161h47q130 0 179 26q-29 45 -29 103q0 105 129 246q96 105 160 105q56 0 84 -74q20 -53 20 -122q0 -56 -27 -135q-30 -89 -69 -115q37 -34 165 -34h54v-161zM484 345q0 35 -33 76t-67 41t-82.5 -39 t-48.5 -72q0 -30 34.5 -65t64.5 -35q31 0 81.5 32.5t50.5 61.5zM565 1022l-79 -121l-123 81l-65 -101l-129 89l82 129l120 -81l61 95z" />
<glyph unicode="&#x643;" horiz-adv-x="2116" arabic-form="final" d="M2146 1h-70q-80 0 -231 141q-237 222 -269 245q16 -43 16 -87q0 -138 -136 -214q-83 -46 -259 -81q-238 -47 -519 -47q-209 0 -319 44q-168 67 -168 244q0 132 97 255q10 13 19 13q17 0 6 -31q-41 -117 -41 -156q0 -122 192 -173q118 -31 286 -31q260 0 460 36 q299 54 299 168q0 65 -152 160q-202 126 -227 151q-50 50 -50 175q0 60 25 86q156 160 474 337q284 158 491 221q-39 -117 -81 -179q-508 -196 -804 -441q-28 -23 -28 -38q0 -20 40 -40l167 -85q145 -75 230 -134q124 -86 328 -270q120 -108 178 -108h46v-161zM873 596 q0 -64 -53 -126t-115 -62q-95 0 -165 65q-7 7 -9 12q3 1 6 3q50 -9 94 -9q122 0 144 50q4 10 -75 38q-84 30 -84 69q0 52 42 119q57 90 160 130q27 7 27 -46q0 -61 -28 -72q-104 -28 -104 -57q0 -1 80 -35.5t80 -78.5z" />
<glyph unicode="&#x643;" horiz-adv-x="952" arabic-form="initial" d="M1019 1286q-10 -28 -45 -95q-39 -75 -50 -85q-633 -211 -785 -313q-18 -12 -18 -21q0 -8 20 -20q173 -105 249 -178q137 -132 137 -283q0 -117 -59 -180q-54 -57 -172 -86q-98 -24 -200 -24h-125v161h69q425 0 425 128q0 60 -170 180q-126 89 -227 139q-24 25 -24 143 q0 99 20 124q160 141 955 410z" />
<glyph unicode="&#x643;" horiz-adv-x="1087" arabic-form="medial" d="M1116 1h-70q-80 0 -231 141q-237 222 -269 245q14 -49 14 -97q0 -234 -287 -280q-56 -9 -206 -9h-108v161h155q128 0 224 24q156 39 156 132q0 60 -160 162q-209 133 -234 158q-50 50 -50 175q0 60 25 86q156 160 474 337q284 158 491 221q-39 -117 -81 -179 q-510 -197 -804 -441q-27 -22 -27 -38q0 -21 93 -70q56 -28 113 -55q145 -75 230 -134q124 -86 328 -270q120 -108 178 -108h46v-161z" />
<glyph unicode="&#x644;" horiz-adv-x="1192" arabic-form="final" d="M1221 1h-58q-93 0 -133 90q-8 19 -13 20q-4 -3 -4 -20q-3 -366 -35 -448q-36 -91 -140 -160q-138 -92 -341 -92q-306 0 -306 300q0 175 135 350q12 16 24 16q6 0 6 -8q0 -9 -9 -25q-83 -149 -83 -263q0 -98 84 -153q72 -48 175 -48q159 0 292 69q118 61 116 111l-41 1279 l68 124q14 26 23 26q10 0 11 -29q1 -64 7 -250q18 -441 46 -573q33 -155 137 -155h39v-161z" />
<glyph unicode="&#x644;" horiz-adv-x="320" arabic-form="initial" d="M312 375q4 -28 4 -59q0 -73 -26 -148q-30 -87 -81 -127t-178 -40h-61v161h99q158 0 149 108q-34 398 -121 770q-11 46 10 74l84 113q12 16 21 1l95 -162q-72 -50 -72 -139q0 -8 2 -22z" />
<glyph unicode="&#x644;" horiz-adv-x="450" arabic-form="medial" d="M480 1h-59q-142 0 -187 156q-6 21 -11 21t-12 -20q-53 -157 -188 -157h-53v161h62q81 0 121 65q36 57 31 140l-37 668l76 113q9 14 18 14q13 0 14 -24l25 -522q11 -221 35 -313q38 -141 129 -141h36v-161z" />
<glyph unicode="&#x645;" horiz-adv-x="1030" arabic-form="final" d="M1060 1h-131q-129 0 -209 55q3 -23 3 -47q0 -63 -20 -118q-27 -75 -79 -75q-61 0 -107 94q-39 79 -49 178q-88 -5 -152 -66q-53 -51 -47 -82q95 -485 95 -761q0 -112 -17 -112q-13 0 -33 121q-34 195 -118 704q-2 13 -2 34q0 113 71 217q82 120 217 147q10 17 30 48 q14 21 38 4q138 -100 167 -116q119 -64 258 -64h85v-161z" />
<glyph unicode="&#x645;" horiz-adv-x="580" arabic-form="initial" d="M580 200q0 -26 -39.5 -77t-64.5 -51q-35 0 -135.5 47t-106.5 47q-23 0 -47 -42q-11 -19 -39 -69q-40 -54 -120 -54h-58v161h84q74 0 121 59q12 15 71 129q41 79 59 102q47 60 109 60q49 0 82 -22q22 -15 48 -82q36 -92 36 -208zM467 269q0 34 -30.5 75.5t-63.5 41.5 q-19 0 -38.5 -18t-19.5 -37q0 -30 128 -81q24 -10 24 19z" />
<glyph unicode="&#x645;" horiz-adv-x="846" arabic-form="medial" d="M876 1h-56q-111 0 -223 80q-5 -67 -15 -90q-15 -34 -51 -34q-67 0 -203 95q-97 68 -110 68q52 0 -52.5 -59.5t-140.5 -59.5h-55v161h73q137 0 212 117q81 126 147 126q47 0 112 -63l122 -117q80 -63 166 -63h74v-161zM477 132q4 40 -17 105q-24 74 -59 74q-31 0 -80 -77 q49 -38 156 -102z" />
<glyph unicode="&#x646;" horiz-adv-x="1185" arabic-form="final" d="M1215 1h-124q-20 -279 -151 -416q-139 -144 -414 -144q-145 0 -237 79q-98 83 -98 226q0 153 137 309q8 9 16 10q8 0 8 -7t-7 -16q-81 -105 -81 -224q0 -107 113 -167q92 -49 209 -49q107 0 213 31q130 38 179 109q29 42 29 208q0 59 -20 91q-12 20 -48 69q-8 11 0 26 l59 115q14 28 31 0q52 -89 120 -89h66v-161zM804 548l-92 -137l-134 91l95 138z" />
<glyph unicode="&#x646;" horiz-adv-x="299" arabic-form="initial" d="M298 264q0 -41 -23 -106q-24 -69 -50 -94q-66 -63 -189 -63h-65v161h67q42 0 106 11q86 15 86 37q0 41 -88 146l68 118q18 32 34 6q54 -89 54 -216zM316 884l-92 -137l-134 91l95 138z" />
<glyph unicode="&#x646;" horiz-adv-x="426" arabic-form="medial" d="M456 1h-59q-138 0 -187 101q-66 -101 -192 -101h-47v161h77q76 0 121 35q27 21 52 65q20 35 29 35q15 0 27 -51q20 -84 135 -84h44v-161zM308 732l-92 -137l-134 91l95 138z" />
<glyph unicode="&#x647;" horiz-adv-x="748" arabic-form="final" d="M777 1h-69q-88 0 -127 66q-28 47 -48 177q-77 -92 -107 -92q-235 0 -235 66q0 36 28 101t53 91q59 61 220 152l-2 82l48 66q11 15 15 16q5 0 8 -26q13 -119 35 -290q16 -124 37 -178q27 -70 87 -70h57v-161zM519 332l-15 136q-48 -12 -107 -49q-72 -45 -72 -79 q0 -31 74 -31q53 0 120 23z" />
<glyph unicode="&#x647;" horiz-adv-x="748" arabic-form="initial" d="M746 256q0 -188 -112 -188q-47 0 -145.5 40t-142.5 40q-23 0 -110 -64q-64 -47 -87 -59q-44 -23 -99 -23h-81v161h73q105 0 150 34q-30 24 -30 85q0 114 132 224q-62 31 -62 37q0 21 35 81q40 68 73 68q64 0 206 -125q76 -67 134 -151q66 -96 66 -160zM669 227 q-37 80 -156 167q-14 10 -20 9q-6 -2 -5 -14q9 -75 -38 -125q70 -24 208 -64q11 -3 15 4q3 8 -4 23zM414 350q0 32 -15 60q-19 34 -48 34q-35 0 -78 -28q-46 -30 -46 -63q0 -23 47 -46q41 -21 68 -21q72 0 72 64z" />
<glyph unicode="&#x647;" horiz-adv-x="748" arabic-form="medial" d="M778 1l-77 1q-91 1 -177 -28q51 -56 51 -137q0 -90 -44 -167q-50 -88 -127 -88q-96 0 -159 135q-50 107 -57 234h-48v61q-77 -11 -121 -11h-50v161h53q106 0 186 40q43 116 115 231q101 161 181 161q56 0 56 -134q0 -154 -67 -251q-25 -36 -109 -105q50 0 152 29t155 29 h87v-161zM493 347q0 27 -17.5 50.5t-43.5 23.5q-62 0 -145 -197q206 70 206 123zM509 -193q0 49 -92 89q-75 32 -135 36q8 -63 40 -117q40 -69 94 -69q31 0 59 15q34 18 34 46z" />
<glyph unicode="&#x648;" horiz-adv-x="875" arabic-form="final" d="M905 1h-109q-11 -142 -139 -304q-149 -189 -325 -189q-68 0 -182 90q-59 46 -59 63q0 9 17 9q27 0 89 -17t94 -17q121 0 275 118q162 124 162 240q-111 0 -164 19q-76 27 -76 101q0 90 61 197q65 115 135 115q63 0 99 -106q27 -80 27 -158h95v-161zM730 164q-8 41 -34 71 q-30 35 -68 35q-42 0 -42 -52q0 -61 101 -61q23 0 43 7z" />
<glyph unicode="&#x649;" horiz-adv-x="1257" arabic-form="final" d="M1288 1h-182q-67 0 -132 -29q-58 -26 -58 -43q0 -15 74 -29q158 -29 174 -35q75 -26 75 -90q0 -85 -36 -134q-86 -116 -282 -178q-163 -51 -337 -51q-167 0 -272 73q-121 84 -121 244q0 210 113 361q17 23 26 23q6 0 6 -10q0 -14 -11 -36q-58 -118 -58 -221 q0 -143 127 -213q103 -57 257 -57q181 0 352 53q154 48 154 85q0 18 -62 29q-37 6 -131 21q-159 26 -159 109q0 91 107 186q117 103 262 103h114v-161z" />
<glyph unicode="&#x64a;" horiz-adv-x="1257" arabic-form="final" d="M1288 1h-182q-67 0 -132 -29q-58 -26 -58 -43q0 -15 74 -29q158 -29 174 -35q75 -26 75 -90q0 -85 -36 -134q-86 -116 -282 -178q-163 -51 -337 -51q-167 0 -272 73q-121 84 -121 244q0 210 113 361q17 23 26 23q6 0 6 -10q0 -14 -11 -36q-58 -118 -58 -221 q0 -143 127 -213q103 -57 257 -57q181 0 352 53q154 48 154 85q0 18 -62 29q-37 6 -131 21q-159 26 -159 109q0 91 107 186q117 103 262 103h114v-161z" />
<glyph unicode="&#x64a;" horiz-adv-x="432" arabic-form="initial" d="M298 264q0 -41 -23 -106q-24 -69 -50 -94q-66 -63 -189 -63h-65v161h67q42 0 106 11q86 15 86 37q0 41 -88 146l68 118q18 32 34 6q54 -89 54 -216zM429 -322l-79 -121l-123 81l-65 -101l-129 89l82 129l120 -81l61 95z" />
<glyph unicode="&#x64a;" horiz-adv-x="426" arabic-form="medial" d="M456 1h-59q-138 0 -187 101q-66 -101 -192 -101h-47v161h77q76 0 121 35q27 21 52 65q20 35 29 35q15 0 27 -51q20 -84 135 -84h44v-161zM409 -322l-79 -121l-123 81l-65 -101l-129 89l82 129l120 -81l61 95z" />
<glyph unicode="&#xd;" horiz-adv-x="400" />
<glyph unicode=" "  horiz-adv-x="400" />
<glyph unicode="&#x09;" horiz-adv-x="400" />
<glyph unicode="&#xa0;" horiz-adv-x="400" />
<glyph unicode="!" horiz-adv-x="395" d="M393 920q0 -75 -29 -236q-32 -178 -36 -247l-13 -232h-44q-2 40 -16 231q-5 73 -34 260q-25 163 -25 226q0 227 99 227q98 0 98 -229zM385 32q0 -40 -28 -68t-68 -28t-68 28t-28 68t28 68t68 28t68 -28t28 -68z" />
<glyph unicode="%" horiz-adv-x="846" d="M234 985q0 -37 -25 -61.5t-62 -24.5t-61.5 24.5t-24.5 61.5q0 36 25 61t61 25q37 0 62 -24.5t25 -61.5zM694 1154l-444 -1266l-61 26l447 1266zM791 83q0 -37 -24.5 -61.5t-61.5 -24.5t-62 24.5t-25 61.5q0 36 25.5 61t61.5 25t61 -25t25 -61z" />
<glyph unicode="(" horiz-adv-x="584" d="M185 552q0 156 91 329q68 129 173 246q87 97 104 97q25 0 25 -27q-10 -11 -71 -98q-204 -291 -204 -559q0 -273 205 -552l72 -98q0 -24 -22 -24q-20 0 -104 81q-269 259 -269 605z" />
<glyph unicode=")" horiz-adv-x="584" d="M581 538q0 -156 -91 -329q-68 -129 -173 -246q-87 -97 -104 -97q-25 0 -25 27q10 11 71 98q204 291 204 559q0 273 -205 552l-72 98q0 24 22 24q20 0 104 -81q269 -259 269 -605z" />
<glyph unicode="*" horiz-adv-x="975" d="M875 639q0 -27 -21 -47q-115 -110 -185 -125q-10 -2 -18 5t-5 17q20 73 126 179q25 25 50 25q53 0 53 -54zM638 728q0 -156 -41 -220q-6 -9 -17 -9q-11 1 -16 9q-37 63 -37 216q0 67 57 67q54 0 54 -63zM973 398q0 -54 -63 -54q-156 0 -220 41q-9 6 -9 17q1 11 9 16 q63 37 216 37q67 0 67 -57zM821 107q-27 0 -47 21q-110 115 -125 185q-2 10 5 18t17 5q73 -20 179 -126q25 -25 25 -50q0 -20 -16.5 -36.5t-37.5 -16.5zM515 487q2 -10 -5 -18t-17 -5q-73 20 -179 126q-25 25 -25 50q0 53 54 53q27 0 47 -21q110 -115 125 -185zM474 382 q-63 -37 -216 -37q-67 0 -67 57q0 54 63 54q156 0 220 -41q9 -6 9 -17q-1 -11 -9 -16zM637 76q0 -67 -57 -67q-54 0 -54 63q0 156 41 220q6 9 17 9q11 -1 16 -9q37 -63 37 -216zM518 311q-20 -73 -126 -179q-25 -25 -50 -25q-53 0 -53 54q0 27 21 47q115 110 185 125 q10 2 18 -5t5 -17z" />
<glyph unicode="+" horiz-adv-x="860" d="M808 338h-326v-326h-87v326h-327v87h327v327h87v-327h326v-87z" />
<glyph unicode="," horiz-adv-x="512" d="M319 256q88 0 142 -89q47 -76 47 -169q0 -35 -7 -75q-35 -201 -174 -290q-2 -1 -5 -1q-19 0 -19 31q0 8 3 12q53 68 62 81q33 50 50 120q18 71 -20 160q-46 -34 -97 -34q-116 0 -116 122q0 132 134 132z" />
<glyph unicode="-" horiz-adv-x="860" d="M808 338h-740v87h740v-87z" />
<glyph unicode="." horiz-adv-x="393" d="M392 58q0 -41 -30 -70t-71 -29t-70.5 29t-29.5 70t29.5 70.5t70.5 29.5t71 -29.5t30 -70.5z" />
<glyph unicode="/" horiz-adv-x="541" d="M490 973l-376 -1066l-66 27l376 1065z" />
<glyph unicode="0" horiz-adv-x="845" d="M544 530q-12 -39 -79 -259q-60 54 -196 148q15 44 74 271q94 -82 201 -160z" />
<glyph unicode="&#x660;" horiz-adv-x="845" d="M544 530q-12 -39 -79 -259q-60 54 -196 148q15 44 74 271q94 -82 201 -160z" />
<glyph unicode="1" horiz-adv-x="845" d="M553 15q-11 -38 -26 -38t-17 42q-14 296 -93 523q-63 181 -191 370l83 161q17 33 24 33q8 0 31 -33q105 -151 166 -381q57 -213 57 -414q0 -148 -34 -263z" />
<glyph unicode="&#x661;" horiz-adv-x="845" d="M553 15q-11 -38 -26 -38t-17 42q-14 296 -93 523q-63 181 -191 370l83 161q17 33 24 33q8 0 31 -33q105 -151 166 -381q57 -213 57 -414q0 -148 -34 -263z" />
<glyph unicode="2" horiz-adv-x="845" d="M698 979q0 -246 -244 -289q62 -212 62 -442q0 -156 -41 -240q-11 -22 -23 -22t-13 22q-18 484 -313 922l60 160q6 16 13 16t32 -23l112 -126q33 -37 97 -37q88 0 139 46q29 26 57 87q21 46 38 46q24 0 24 -120z" />
<glyph unicode="&#x662;" horiz-adv-x="845" d="M698 979q0 -246 -244 -289q62 -212 62 -442q0 -156 -41 -240q-11 -22 -23 -22t-13 22q-18 484 -313 922l60 160q6 16 13 16t32 -23l112 -126q33 -37 97 -37q88 0 139 46q29 26 57 87q21 46 38 46q24 0 24 -120z" />
<glyph unicode="3" horiz-adv-x="845" d="M838 1020q0 -118 -31 -201q-45 -118 -144 -118q-111 0 -177 76q-66 -106 -172 -106q58 -174 58 -380q0 -170 -49 -286q-9 -21 -21 -21q-11 0 -12 20q-14 510 -270 867q23 91 63 210q14 23 30 5q34 -40 122 -145q34 -40 101 -40q106 0 170 139q37 80 53 80q31 0 18 -84 q-7 -46 46 -74q42 -22 92 -22q35 0 64 75t32 75q27 0 27 -70z" />
<glyph unicode="&#x663;" horiz-adv-x="845" d="M838 1020q0 -118 -31 -201q-45 -118 -144 -118q-111 0 -177 76q-66 -106 -172 -106q58 -174 58 -380q0 -170 -49 -286q-9 -21 -21 -21q-11 0 -12 20q-14 510 -270 867q23 91 63 210q14 23 30 5q34 -40 122 -145q34 -40 101 -40q106 0 170 139q37 80 53 80q31 0 18 -84 q-7 -46 46 -74q42 -22 92 -22q35 0 64 75t32 75q27 0 27 -70z" />
<glyph unicode="4" horiz-adv-x="845" d="M788 753q-22 -62 -79 -112q-80 -70 -193 -70q-63 0 -135 23q41 -155 41 -306q0 -168 -56 -288q-11 -24 -24 -24q-14 0 -14 24q3 244 -77 492q-73 227 -187 381l71 203q7 21 25 4q77 -75 146 -188q85 222 248 222q52 0 108.5 -37t78.5 -85q7 -15 7 -27q0 -18 -17 -18 q-9 0 -18 5q-61 34 -132 34t-126 -34q-64 -39 -64 -106q0 -47 64 -81q55 -29 107 -29q125 0 194 50q13 9 23 9q14 0 14 -17q0 -11 -5 -25z" />
<glyph unicode="&#x664;" horiz-adv-x="845" d="M788 753q-22 -62 -79 -112q-80 -70 -193 -70q-63 0 -135 23q41 -155 41 -306q0 -168 -56 -288q-11 -24 -24 -24q-14 0 -14 24q3 244 -77 492q-73 227 -187 381l71 203q7 21 25 4q77 -75 146 -188q85 222 248 222q52 0 108.5 -37t78.5 -85q7 -15 7 -27q0 -18 -17 -18 q-9 0 -18 5q-61 34 -132 34t-126 -34q-64 -39 -64 -106q0 -47 64 -81q55 -29 107 -29q125 0 194 50q13 9 23 9q14 0 14 -17q0 -11 -5 -25z" />
<glyph unicode="5" horiz-adv-x="845" d="M775 423q0 -134 -43 -248q-58 -154 -171 -154q-90 0 -141 65q-70 -101 -156 -101q-96 0 -149 99q-43 81 -43 185q0 123 82 314q67 155 145 269l-38 32l57 206q6 22 27 -1q213 -233 288 -335q142 -195 142 -331zM677 350q0 92 -122 246q-88 111 -202 213 q-56 -85 -115 -216q-72 -158 -72 -226q0 -58 29 -103q33 -52 88 -52q85 0 127 63q16 25 23 25q6 0 24 -23q40 -50 118 -50q102 0 102 123z" />
<glyph unicode="&#x665;" horiz-adv-x="845" d="M775 423q0 -134 -43 -248q-58 -154 -171 -154q-90 0 -141 65q-70 -101 -156 -101q-96 0 -149 99q-43 81 -43 185q0 123 82 314q67 155 145 269l-38 32l57 206q6 22 27 -1q213 -233 288 -335q142 -195 142 -331zM677 350q0 92 -122 246q-88 111 -202 213 q-56 -85 -115 -216q-72 -158 -72 -226q0 -58 29 -103q33 -52 88 -52q85 0 127 63q16 25 23 25q6 0 24 -23q40 -50 118 -50q102 0 102 123z" />
<glyph unicode="6" horiz-adv-x="845" d="M803 792q-22 -103 -47 -183q-166 -66 -333 -252q-147 -164 -236 -350q-15 -32 -31 -32q-17 0 -17 34q0 13 4 29q30 116 62 196q58 144 152 271q-244 51 -244 155q0 98 107 270q118 190 226 190q110 0 192 -121q15 -22 15 -43q0 -43 -43 -43q-12 0 -23 6q-87 46 -161 46 q-62 0 -123.5 -61.5t-61.5 -123.5q0 -49 86 -78q67 -23 126 -23q66 0 162 63q39 27 142 96q27 18 39 18q14 0 14 -22q0 -9 -7 -42z" />
<glyph unicode="&#x666;" horiz-adv-x="845" d="M803 792q-22 -103 -47 -183q-166 -66 -333 -252q-147 -164 -236 -350q-15 -32 -31 -32q-17 0 -17 34q0 13 4 29q30 116 62 196q58 144 152 271q-244 51 -244 155q0 98 107 270q118 190 226 190q110 0 192 -121q15 -22 15 -43q0 -43 -43 -43q-12 0 -23 6q-87 46 -161 46 q-62 0 -123.5 -61.5t-61.5 -123.5q0 -49 86 -78q67 -23 126 -23q66 0 162 63q39 27 142 96q27 18 39 18q14 0 14 -22q0 -9 -7 -42z" />
<glyph unicode="7" horiz-adv-x="845" d="M826 888q-140 -174 -244 -464q-23 -65 -104 -349q-27 -94 -44 -94q-18 0 -43 95q-133 499 -373 785q11 41 57 171q11 32 18 32q9 0 29 -26q234 -302 309 -681q5 -25 11 -25t13 28q115 472 329 707q17 19 25 19q14 0 17 -198z" />
<glyph unicode="&#x667;" horiz-adv-x="845" d="M826 888q-140 -174 -244 -464q-23 -65 -104 -349q-27 -94 -44 -94q-18 0 -43 95q-133 499 -373 785q11 41 57 171q11 32 18 32q9 0 29 -26q234 -302 309 -681q5 -25 11 -25t13 28q115 472 329 707q17 19 25 19q14 0 17 -198z" />
<glyph unicode="8" horiz-adv-x="845" d="M18 178q140 174 244 464q23 65 104 349q27 94 44 94q18 0 43 -95q133 -499 373 -785q-11 -41 -57 -171q-11 -32 -18 -32q-9 0 -29 26q-234 302 -309 681q-5 25 -11 25t-13 -28q-115 -472 -329 -707q-17 -19 -25 -19q-14 0 -17 198z" />
<glyph unicode="&#x668;" horiz-adv-x="845" d="M18 178q140 174 244 464q23 65 104 349q27 94 44 94q18 0 43 -95q133 -499 373 -785q-11 -41 -57 -171q-11 -32 -18 -32q-9 0 -29 26q-234 302 -309 681q-5 25 -11 25t-13 -28q-115 -472 -329 -707q-17 -19 -25 -19q-14 0 -17 198z" />
<glyph unicode="9" horiz-adv-x="845" d="M746 177l-61 -178q-10 -29 -27 -8q-81 98 -118 216q-31 99 -47 268q-42 -13 -88 -13q-99 0 -191 55q-106 64 -106 157q0 110 98 274q103 173 188 173q108 0 159 -197q33 -128 33 -279q0 -259 160 -468zM466 693q-22 203 -125 203q-34 0 -66 -38t-32 -72q0 -45 78 -73 q62 -22 116 -22q15 0 29 2z" />
<glyph unicode="&#x669;" horiz-adv-x="845" d="M746 177l-61 -178q-10 -29 -27 -8q-81 98 -118 216q-31 99 -47 268q-42 -13 -88 -13q-99 0 -191 55q-106 64 -106 157q0 110 98 274q103 173 188 173q108 0 159 -197q33 -128 33 -279q0 -259 160 -468zM466 693q-22 203 -125 203q-34 0 -66 -38t-32 -72q0 -45 78 -73 q62 -22 116 -22q15 0 29 2z" />
<glyph unicode=":" horiz-adv-x="393" d="M392 58q0 -41 -30 -70t-71 -29t-70.5 29t-29.5 70t29.5 70.5t70.5 29.5t71 -29.5t30 -70.5zM392 708q0 -41 -30 -70t-71 -29t-70.5 29t-29.5 70t29.5 70.5t70.5 29.5t71 -29.5t30 -70.5z" />
<glyph unicode="=" horiz-adv-x="860" d="M806 462h-740v86h740v-86zM806 205h-740v87h740v-87z" />
<glyph unicode="[" horiz-adv-x="493" d="M483 -362h-343v1593h343v-43h-250v-1508h250v-42z" />
<glyph unicode="]" horiz-adv-x="493" d="M489 -362h-341v42h249v1508h-249v43h341v-1593z" />
<glyph unicode="{" horiz-adv-x="981" d="M832 -320q-152 27 -249 129q-103 107 -103 257q0 61 26 177q19 85 19 112q0 97 -72 163q-67 62 -166 73v38q239 52 239 219q0 47 -16 122q-27 126 -27 188q0 151 101 257q96 102 248 127v-40q-94 -14 -155 -73q-67 -64 -67 -155q0 -46 13 -115q30 -160 30 -210 q0 -224 -286 -336q283 -116 283 -350q0 -49 -27 -179q-17 -82 -17 -135q0 -180 226 -233v-36z" />
<glyph unicode="}" horiz-adv-x="981" d="M695 593q-239 -52 -239 -220q0 -52 15 -122q28 -131 28 -187q0 -151 -101 -257q-96 -102 -248 -127v40q94 14 155 73q66 63 66 155q0 48 -12 114q-30 164 -30 211q0 223 285 336q-282 116 -282 349q0 55 26 180q18 87 18 135q0 180 -226 233v36q152 -28 249 -129 q103 -106 103 -257q0 -57 -27 -177q-18 -80 -18 -113q0 -97 73 -162q64 -58 165 -74v-37z" />
<glyph unicode="&#xab;" horiz-adv-x="521" d="M516 39q4 -8 4 -14q0 -23 -29 4q-114 105 -114 335q0 83 32 173q33 96 87 153q14 15 20 15q5 0 5 -7q0 -10 -11 -32q-51 -104 -51 -305q0 -210 57 -322zM359 -1q5 -9 5 -14q0 -23 -30 4q-143 128 -143 375q0 116 50 224q41 88 98 142q15 14 22 14q5 0 5 -6q0 -10 -13 -32 q-81 -139 -81 -345q0 -210 87 -362z" />
<glyph unicode="&#xb7;" horiz-adv-x="405" d="M326 768q0 -50 -35.5 -85t-85.5 -35q-49 0 -84.5 35.5t-35.5 84.5t34.5 85t83.5 36q51 0 87 -35t36 -86z" />
<glyph unicode="&#x2d9;" horiz-adv-x="405" d="M326 768q0 -50 -35.5 -85t-85.5 -35q-49 0 -84.5 35.5t-35.5 84.5t34.5 85t83.5 36q51 0 87 -35t36 -86z" />
<glyph unicode="&#xbb;" horiz-adv-x="522" d="M195 683q-4 8 -4 14q0 23 29 -4q114 -105 114 -335q0 -83 -32 -174q-33 -95 -87 -152q-14 -15 -20 -15q-5 0 -5 7q0 10 11 32q51 104 51 305q0 210 -57 322zM352 723q-5 9 -5 14q0 23 30 -4q143 -128 143 -375q0 -116 -50 -224q-41 -88 -98 -142q-15 -14 -22 -14 q-5 0 -5 6q0 10 13 32q81 139 81 345q0 210 -87 362z" />
<glyph unicode="&#xd7;" horiz-adv-x="946" d="M802 219l-58 -57l-277 275l-277 -275l-59 57l275 278l-275 278l62 56l274 -276l277 276l58 -56l-279 -278z" />
<glyph unicode="&#xf7;" horiz-adv-x="845" d="M819 410h-769v87h769v-87zM424 584q-49 0 -83 34.5t-34 83.5t34 84t83 35t84 -35t35 -84t-35 -83.5t-84 -34.5zM424 90q-49 0 -83 34.5t-34 83.5t34 84t83 35t84 -35t35 -84t-35 -83.5t-84 -34.5z" />
<glyph unicode="&#x60c;" horiz-adv-x="512" d="M377 -40q-88 0 -142 89q-47 76 -47 169q0 35 7 75q35 201 174 290q2 1 5 1q19 0 19 -31q0 -8 -3 -12q-53 -68 -62 -81q-33 -50 -50 -120q-18 -71 20 -160q46 34 97 34q116 0 116 -122q0 -132 -134 -132z" />
<glyph unicode="&#x61b;" horiz-adv-x="512" d="M377 290q-88 0 -142 89q-47 76 -47 169q0 35 7 75q35 201 174 290q2 1 5 1q19 0 19 -31q0 -8 -3 -12q-53 -68 -62 -81q-33 -50 -50 -120q-18 -71 20 -160q46 34 97 34q116 0 116 -122q0 -132 -134 -132zM454 58q0 -41 -30 -70t-71 -29t-70.5 29t-29.5 70t29.5 70.5 t70.5 29.5t71 -29.5t30 -70.5z" />
<glyph unicode="&#x61f;" horiz-adv-x="768" d="M768 864q0 -68 -31 -118q-36 -59 -101 -59q-43 0 -73 27t-30 70q0 46 30.5 77.5t76.5 31.5q35 0 68 -20q3 69 -66 119q-62 46 -134 46q-67 0 -112.5 -41t-45.5 -107q0 -68 103.5 -256.5t103.5 -286.5q0 -21 -3 -45l-15 -121l-53 3l6 107q4 63 -74 132q-129 116 -147 137 q-80 96 -80 226q0 126 91.5 224t216.5 98q105 0 185 -68q84 -72 84 -176zM600 14q0 -39 -28.5 -67t-67.5 -28t-67 28t-28 67t28 67t67 28t67.5 -28t28.5 -67z" />
<glyph unicode="&#x621;" horiz-adv-x="711" d="M722 228q-34 -67 -76 -128q-125 -24 -184 -39q-126 -32 -246 -81q-2 11 -3 23q2 16 6 32q29 34 123 77q-47 27 -61 41q-24 24 -24 62q0 70 86 151.5t157 81.5q74 0 74 -67q0 -65 -31 -106q-19 -25 -33 5q-25 53 -79 53q-55 0 -55 -37q0 -44 49 -79q45 -33 91 -33 q15 0 206 44z" />
<glyph unicode="&#x622;" horiz-adv-x="753" d="M542 298q1 -13 1 -30q0 -153 -58 -264q-6 -11 -18 -10t-11 17q11 126 -18 404q-9 80 -32 288q-14 131 -15 250q0 19 34 80q53 94 71 94q13 0 9 -45t-4 -109q0 -162 41 -675zM830 1351q-63 -85 -190 -126q-99 -32 -209 -32q-28 0 -82 10.5t-82 10.5q-31 0 -38 -43 q-4 -27 -23 -27q-36 0 -60 35q-22 31 -22 69q0 87 94 86q39 0 116.5 -13.5t117.5 -13.5q155 0 235 19q35 8 85 29q43 18 50 18q9 0 10 -9q2 -8 -2 -13z" />
<glyph unicode="&#x623;" horiz-adv-x="470" d="M392 298q1 -13 1 -30q0 -153 -58 -264q-6 -11 -18 -10t-11 17q11 126 -18 404q-9 80 -32 288q-14 131 -15 250q0 19 34 80q53 94 71 94q13 0 9 -45t-4 -109q0 -162 41 -675zM489 1345q-17 -41 -39 -89q-178 -26 -292 -72q4 14 12 32q40 50 90 68q-76 48 -76 82 q0 51 53 111t103 60q60 0 60 -50q0 -51 -21 -77q-8 -10 -15 4q-20 44 -71 44q-38 0 -38 -37q0 -33 44 -64q41 -30 75 -30q25 0 115 18z" />
<glyph unicode="&#x624;" horiz-adv-x="790" d="M788 204q0 -196 -133 -386q-145 -207 -334 -207q-88 0 -207 81q-25 17 -25 30q0 16 29 11q109 -17 200 -1q115 21 252 147q142 131 150 243q-81 -51 -131 -51q-63 0 -103 47q-37 44 -37 109q0 76 54 185q62 125 128 125q81 0 125 -134q32 -98 32 -199zM686 262 q-6 36 -29 68q-27 38 -60 38q-23 0 -41 -22t-18 -45q0 -62 71 -62q39 0 77 23zM784 835q-17 -41 -39 -89q-178 -26 -292 -72q4 14 12 32q40 50 90 68q-76 48 -76 82q0 51 53 111t103 60q60 0 60 -50q0 -51 -21 -77q-8 -10 -15 4q-20 44 -71 44q-38 0 -38 -37q0 -33 44 -64 q41 -30 75 -30q25 0 115 18z" />
<glyph unicode="&#x625;" horiz-adv-x="490" d="M412 298q1 -13 1 -30q0 -153 -58 -264q-6 -11 -18 -10t-11 17q11 126 -18 404q-9 80 -32 288q-14 131 -15 250q0 19 34 80q53 94 71 94q13 0 9 -45t-4 -109q0 -162 41 -675zM520 -329q-17 -41 -39 -89q-178 -26 -292 -72q4 14 12 32q40 50 90 68q-76 48 -76 82 q0 51 53 111t103 60q60 0 60 -50q0 -51 -21 -77q-8 -10 -15 4q-20 44 -71 44q-38 0 -38 -37q0 -33 44 -64q41 -30 75 -30q25 0 115 18z" />
<glyph unicode="&#x626;" horiz-adv-x="1306" d="M1305 615q0 -23 -14 -76t-19 -53q-3 0 -48 17t-70 17q-102 0 -213 -86q-105 -82 -105 -144q0 -74 110 -95q57 -9 206 -33q110 -18 110 -73q0 -150 -82 -233q-58 -58 -223 -128q-218 -92 -407 -92q-155 0 -251 68q-108 78 -108 228q0 227 145 431q14 20 24 20q7 0 7 -10 q0 -8 -4 -16q-96 -197 -96 -303q0 -121 103 -191q88 -60 207 -60q238 0 446 92q153 68 153 97q0 12 -219 40q-107 14 -150 49q-51 42 -51 144q0 126 154 294t278 168q31 0 68 -16q49 -21 49 -56zM582 633q-17 -41 -39 -89q-178 -26 -292 -72q4 14 12 32q40 50 90 68 q-76 48 -76 82q0 51 53 111t103 60q60 0 60 -50q0 -51 -21 -77q-8 -10 -15 4q-20 44 -71 44q-38 0 -38 -37q0 -33 44 -64q41 -30 75 -30q25 0 115 18z" />
<glyph unicode="&#x627;" horiz-adv-x="343" d="M342 298q1 -13 1 -30q0 -153 -58 -264q-6 -11 -18 -10t-11 17q11 126 -18 404q-9 80 -32 288q-14 131 -15 250q0 19 34 80q53 94 71 94q13 0 9 -45t-4 -109q0 -162 41 -675z" />
<glyph unicode="&#x628;" horiz-adv-x="1577" d="M1576 362q0 -54 -32 -132q-27 -66 -44 -82q-62 -59 -297 -119q-267 -68 -528 -68q-188 0 -313 55q-171 75 -171 240q0 121 85 219q11 13 20 13t9 -12q0 -8 -5 -18q-32 -61 -32 -122q0 -122 198 -177q129 -36 291 -36q262 0 517 67q232 61 232 104q0 44 -88 148l66 134 q14 28 28 2q64 -116 64 -216zM1064 -420l-92 -137l-134 91l95 138z" />
<glyph unicode="&#x62a;" horiz-adv-x="1577" d="M1576 362q0 -54 -32 -132q-27 -66 -44 -82q-62 -59 -297 -119q-267 -68 -528 -68q-188 0 -313 55q-171 75 -171 240q0 121 85 219q11 13 20 13t9 -12q0 -8 -5 -18q-32 -61 -32 -122q0 -122 198 -177q129 -36 291 -36q262 0 517 67q232 61 232 104q0 44 -88 148l66 134 q14 28 28 2q64 -116 64 -216zM1037 798l-79 -121l-123 81l-65 -101l-129 89l82 129l120 -81l61 95z" />
<glyph unicode="&#x62b;" horiz-adv-x="1577" d="M1576 362q0 -54 -32 -132q-27 -66 -44 -82q-62 -59 -297 -119q-267 -68 -528 -68q-188 0 -313 55q-171 75 -171 240q0 121 85 219q11 13 20 13t9 -12q0 -8 -5 -18q-32 -61 -32 -122q0 -122 198 -177q129 -36 291 -36q262 0 517 67q232 61 232 104q0 44 -88 148l66 134 q14 28 28 2q64 -116 64 -216zM897 994l-81 -112l-118 78l79 122zM1031 799l-78 -119l-118 74l-65 -92l-121 78l84 126l116 -74l57 87z" />
<glyph unicode="&#x62c;" horiz-adv-x="1210" d="M1384 -714q-145 -66 -333 -141q-90 -21 -235 -21q-282 0 -443 118q-185 135 -185 407q0 242 165 429q123 139 285 204q-152 27 -226 27q-93 0 -134 -20q-15 -7 -21 -2q-7 6 -3 25q34 171 217 171q87 0 259 -24t259 -24h171q14 0 12 -8l-2 -4l-67 -136q-116 0 -242 -27 q-218 -47 -377 -160q-220 -157 -220 -386q0 -233 244 -346q185 -86 446 -86q234 0 424 34q27 5 27 -10q0 -10 -21 -20zM844 -250l-92 -137l-134 91l95 138z" />
<glyph unicode="&#x62d;" horiz-adv-x="1210" d="M1384 -714q-145 -66 -333 -141q-90 -21 -235 -21q-282 0 -443 118q-185 135 -185 407q0 242 165 429q123 139 285 204q-152 27 -226 27q-93 0 -134 -20q-15 -7 -21 -2q-7 6 -3 25q34 171 217 171q87 0 259 -24t259 -24h171q14 0 12 -8l-2 -4l-67 -136q-116 0 -242 -27 q-218 -47 -377 -160q-220 -157 -220 -386q0 -233 244 -346q185 -86 446 -86q234 0 424 34q27 5 27 -10q0 -10 -21 -20z" />
<glyph unicode="&#x62e;" horiz-adv-x="1210" d="M1384 -714q-145 -66 -333 -141q-90 -21 -235 -21q-282 0 -443 118q-185 135 -185 407q0 242 165 429q123 139 285 204q-152 27 -226 27q-93 0 -134 -20q-15 -7 -21 -2q-7 6 -3 25q34 171 217 171q87 0 259 -24t259 -24h171q14 0 12 -8l-2 -4l-67 -136q-116 0 -242 -27 q-218 -47 -377 -160q-220 -157 -220 -386q0 -233 244 -346q185 -86 446 -86q234 0 424 34q27 5 27 -10q0 -10 -21 -20zM759 845l-92 -137l-134 91l95 138z" />
<glyph unicode="&#x62f;" horiz-adv-x="757" d="M756 275q0 -125 -43.5 -176t-168.5 -77q-100 -21 -198 -21q-67 0 -139 16q-19 4 -15 23l28 128q1 12 22 7q53 -13 98 -13q94 0 206 24q141 30 141 78q0 55 -115 142q-105 79 -194 110q-18 6 -9 31q52 141 67 141q63 0 177 -107q143 -135 143 -306z" />
<glyph unicode="&#x630;" horiz-adv-x="757" d="M756 275q0 -125 -43.5 -176t-168.5 -77q-100 -21 -198 -21q-67 0 -139 16q-19 4 -15 23l28 128q1 12 22 7q53 -13 98 -13q94 0 206 24q141 30 141 78q0 55 -115 142q-105 79 -194 110q-18 6 -9 31q52 141 67 141q63 0 177 -107q143 -135 143 -306zM539 1075l-92 -137 l-134 91l95 138z" />
<glyph unicode="&#x631;" horiz-adv-x="762" d="M760 152q0 -212 -144 -379q-137 -159 -262 -159q-60 0 -135 29.5t-119 70.5q-9 8 -9 18q0 16 16 16q4 0 9 -2q62 -25 129 -25q118 0 281 141q157 136 157 219q0 92 -143 241l62 142q11 25 28 10q130 -117 130 -322z" />
<glyph unicode="&#x632;" horiz-adv-x="762" d="M760 152q0 -212 -144 -379q-137 -159 -262 -159q-60 0 -135 29.5t-119 70.5q-9 8 -9 18q0 16 16 16q4 0 9 -2q62 -25 129 -25q118 0 281 141q157 136 157 219q0 92 -143 241l62 142q11 25 28 10q130 -117 130 -322zM704 875l-92 -137l-134 91l95 138z" />
<glyph unicode="&#x633;" horiz-adv-x="1722" d="M1719 310q0 -87 -37 -157q-45 -85 -122 -85q-93 0 -168 84q-71 -113 -124 -136q-35 -15 -178 -15q-20 -280 -150 -416q-138 -144 -414 -144q-145 0 -237 79q-98 83 -98 226q0 153 137 309q8 9 16 10q8 0 8 -7t-7 -16q-81 -105 -81 -224q0 -107 113 -167q92 -49 209 -49 q107 0 213 31q130 38 179 109q29 42 29 208q0 59 -20 91q-12 20 -48 69q-8 11 0 26l59 115q15 29 31 0q51 -91 120 -91q179 0 239 122q6 13 32 75q10 25 22 25q14 0 18 -26q5 -40 11 -52q23 -52 91 -74q33 -11 58 -5q22 5 22 15q0 22 -41 58q18 60 46 137q10 27 33 4 q39 -39 39 -129z" />
<glyph unicode="&#x634;" horiz-adv-x="1728" d="M1719 310q0 -87 -37 -157q-45 -85 -122 -85q-93 0 -168 84q-71 -113 -124 -136q-35 -15 -178 -15q-20 -280 -150 -416q-138 -144 -414 -144q-145 0 -237 79q-98 83 -98 226q0 153 137 309q8 9 16 10q8 0 8 -7t-7 -16q-81 -105 -81 -224q0 -107 113 -167q92 -49 209 -49 q107 0 213 31q130 38 179 109q29 42 29 208q0 59 -20 91q-12 20 -48 69q-8 11 0 26l59 115q15 29 31 0q51 -91 120 -91q179 0 239 122q6 13 32 75q10 25 22 25q14 0 18 -26q5 -40 11 -52q23 -52 91 -74q33 -11 58 -5q22 5 22 15q0 22 -41 58q18 60 46 137q10 27 33 4 q39 -39 39 -129zM1473 970l-81 -112l-118 78l79 122zM1607 775l-78 -119l-118 74l-65 -92l-121 78l84 126l116 -74l57 87z" />
<glyph unicode="&#x635;" horiz-adv-x="2044" d="M2041 397q0 -210 -299 -315q-193 -68 -436 -77q-5 -10 -39 -97q-18 -46 -33 -46q-19 0 -19 39q0 37 17 100h-142q-20 -286 -148 -419q-135 -141 -416 -141q-145 0 -237 79q-98 83 -98 226q0 153 137 309q8 9 16 10q8 0 8 -7t-7 -16q-81 -105 -81 -224q0 -107 113 -167 q92 -49 209 -49q107 0 213 31q130 38 179 109q29 42 29 208q0 59 -20 91q-12 20 -48 69q-8 11 0 26l59 115q14 28 31 0q53 -89 120 -89h42q84 0 127 42q56 57 207 201q180 165 346 165q170 0 170 -173zM1920 322q0 34 -61 60q-51 21 -91 21q-99 0 -219 -89 q-92 -68 -156 -153q172 4 357 65q170 56 170 96z" />
<glyph unicode="&#x636;" horiz-adv-x="2044" d="M2041 397q0 -210 -299 -315q-193 -68 -436 -77q-5 -10 -39 -97q-18 -46 -33 -46q-19 0 -19 39q0 37 17 100h-142q-20 -286 -148 -419q-135 -141 -416 -141q-145 0 -237 79q-98 83 -98 226q0 153 137 309q8 9 16 10q8 0 8 -7t-7 -16q-81 -105 -81 -224q0 -107 113 -167 q92 -49 209 -49q107 0 213 31q130 38 179 109q29 42 29 208q0 59 -20 91q-12 20 -48 69q-8 11 0 26l59 115q14 28 31 0q53 -89 120 -89h42q84 0 127 42q56 57 207 201q180 165 346 165q170 0 170 -173zM1920 322q0 34 -61 60q-51 21 -91 21q-99 0 -219 -89 q-92 -68 -156 -153q172 4 357 65q170 56 170 96zM1824 940l-92 -137l-134 91l95 138z" />
<glyph unicode="&#x637;" horiz-adv-x="1326" d="M1323 405q0 -115 -96 -201q-226 -203 -646 -203h-157q-34 0 -117 52q-79 49 -105 81q-10 12 -10 23q0 20 29 20q7 0 13 -1q106 -17 200 -17q166 0 196 82q18 50 18 176q0 202 -26 377q-12 57 -34 171q-26 135 -11 164l42 85q11 23 24 4l87 -129q-40 -51 -40 -123 q0 29 1 30q5 -22 13 -155q14 -225 14 -298q0 -133 -14 -251q93 104 216 185q140 92 229 92q75 0 124.5 -45t49.5 -119zM1212 321q0 34 -68 60q-55 21 -97 21q-157 0 -387 -241q196 0 388 70q164 60 164 90z" />
<glyph unicode="&#x638;" horiz-adv-x="1326" d="M1323 405q0 -115 -96 -201q-226 -203 -646 -203h-157q-34 0 -117 52q-79 49 -105 81q-10 12 -10 23q0 20 29 20q7 0 13 -1q106 -17 200 -17q166 0 196 82q18 50 18 176q0 202 -26 377q-12 57 -34 171q-26 135 -11 164l42 85q11 23 24 4l87 -129q-40 -51 -40 -123 q0 29 1 30q5 -22 13 -155q14 -225 14 -298q0 -133 -14 -251q93 104 216 185q140 92 229 92q75 0 124.5 -45t49.5 -119zM1212 321q0 34 -68 60q-55 21 -97 21q-157 0 -387 -241q196 0 388 70q164 60 164 90zM1130 956l-92 -137l-134 91l95 138z" />
<glyph unicode="&#x639;" horiz-adv-x="978" d="M1326 -710q25 2 25 -14q0 -11 -26 -21q-13 -5 -236 -97q-141 -58 -255 -58q-281 0 -450 118q-196 136 -196 405q0 160 87 350q74 162 159 247q-61 21 -115 57q-73 49 -73 95q0 106 85 232q96 142 209 142q51 0 138 -72q16 -13 16 -27q0 -19 -36 -19q-233 0 -334 -162 q62 -116 228 -116q46 0 153 60q150 85 191 101q10 4 17 4q21 0 3 -29q-14 -23 -76 -128q-224 -119 -341 -220q-236 -205 -236 -447q0 -216 228 -331q181 -92 418 -92q120 0 417 22z" />
<glyph unicode="&#x63a;" horiz-adv-x="978" d="M1326 -710q25 2 25 -14q0 -11 -26 -21q-13 -5 -236 -97q-141 -58 -255 -58q-281 0 -450 118q-196 136 -196 405q0 160 87 350q74 162 159 247q-61 21 -115 57q-73 49 -73 95q0 106 85 232q96 142 209 142q51 0 138 -72q16 -13 16 -27q0 -19 -36 -19q-233 0 -334 -162 q62 -116 228 -116q46 0 153 60q150 85 191 101q10 4 17 4q21 0 3 -29q-14 -23 -76 -128q-224 -119 -341 -220q-236 -205 -236 -447q0 -216 228 -331q181 -92 418 -92q120 0 417 22zM600 1084l-92 -137l-134 91l95 138z" />
<glyph unicode="&#x640;" horiz-adv-x="468" d="M495 1h-524v161h524v-161z" />
<glyph unicode="&#x641;" horiz-adv-x="1698" d="M1696 377q0 -198 -39 -237q-105 -104 -374 -188q-221 -69 -417 -87q-136 -13 -277 -6q-190 9 -284 78q-113 82 -113 263q0 143 90 230q13 13 22 13q8 0 8 -11q0 -12 -11 -29q-43 -65 -43 -150q0 -121 141 -182q106 -46 244 -46h122q262 0 548 90q264 83 309 159 q5 22 5 41q0 44 -27 68q-15 -48 -65 -77q-45 -27 -98 -27q-131 0 -131 125q0 90 55 191q60 111 135 111q66 0 128 -85q72 -99 72 -244zM1533 467q0 30 -26.5 60.5t-56.5 30.5q-29 0 -47 -33q-14 -28 -14 -60q0 -39 54 -39q23 0 53 10q37 12 37 31zM1316 1028l-92 -137 l-134 91l95 138z" />
<glyph unicode="&#x642;" horiz-adv-x="1175" d="M1175 262q0 -259 -185 -407q-170 -136 -435 -136q-168 0 -263 81q-101 87 -101 252q0 90 35 192q37 108 94 170q16 17 25 17q7 0 7 -9q0 -11 -8 -24q-78 -132 -78 -254q0 -131 88 -200q79 -63 213 -63q175 0 344 80q208 98 208 254q0 17 -7 47q-9 37 -19 37q14 0 15 -4 q0 -8 -60 -33q-90 -38 -126 -38q-158 0 -158 156q0 54 57 165q69 135 149 135q54 0 120 -98q85 -126 85 -320zM1028 442q-11 29 -40 54q-32 26 -61 26q-24 0 -46.5 -21t-22.5 -45q0 -25 24 -41t50 -16q61 0 96 43zM1123 1070l-79 -121l-123 81l-65 -101l-129 89l82 129 l120 -81l61 95z" />
<glyph unicode="&#x644;" horiz-adv-x="999" d="M998 1055q-56 -58 -56 -137q0 -13 1 -21q9 -74 46 -483q10 -113 8 -249q-3 -170 -149 -271q-131 -90 -313 -90q-153 0 -244 70q-100 77 -100 226q0 180 119 334q8 11 17 12t9 -9q0 -7 -7 -19q-67 -120 -67 -248q0 -103 89 -157q73 -45 183 -45q101 0 225 41 q162 54 157 134q-44 666 -108 873q-13 43 5 76l71 93q17 22 32 -2z" />
<glyph unicode="&#x645;" horiz-adv-x="751" d="M750 284q0 -137 -36 -152q-13 -6 -85 -1q-84 5 -137 -4q-71 -12 -140 -46q-93 -45 -93 -99q0 -6 1 -11q89 -413 149 -764q6 -35 6 -78q0 -47 -11 -47q-13 0 -48 141q-25 95 -91 343q-73 276 -73 380q0 135 68 248q13 140 83 237q63 87 127 87q91 0 173 -74 q74 -68 107 -160zM558 300q-38 64 -132 64q-35 0 -61 -43q-22 -37 -25 -76q75 36 218 55z" />
<glyph unicode="&#x646;" horiz-adv-x="982" d="M980 269q0 -203 -121 -324t-324 -121q-344 0 -344 295q0 168 101 300q18 24 29 24q6 0 6 -8q0 -11 -11 -31q-57 -101 -57 -196q0 -109 82 -168q72 -53 185 -53q181 0 304 77q90 56 90 90q0 92 -58 230q-47 113 -106 202l52 110q11 23 18 23q5 0 17 -16q137 -182 137 -434 zM614 888l-92 -137l-134 91l95 138z" />
<glyph unicode="&#x647;" horiz-adv-x="604" d="M602 310q5 -41 -2 -113q-8 -80 -26 -107q-61 -90 -228 -90q-52 0 -96 35q-59 47 -59 133q0 106 78 243q71 125 105 125q85 0 153 -71q64 -68 75 -155zM530 230q0 32 -46 70q-57 48 -146 48q-19 0 -42 -52q-20 -46 -20 -70q0 -60 92 -60q51 0 101 15q61 18 61 49z" />
<glyph unicode="&#x648;" horiz-adv-x="790" d="M788 204q0 -196 -133 -386q-145 -207 -334 -207q-88 0 -207 81q-25 17 -25 30q0 16 29 11q109 -17 200 -1q115 21 252 147q142 131 150 243q-81 -51 -131 -51q-63 0 -103 47q-37 44 -37 109q0 76 54 185q62 125 128 125q81 0 125 -134q32 -98 32 -199zM686 262 q-6 36 -29 68q-27 38 -60 38q-23 0 -41 -22t-18 -45q0 -62 71 -62q39 0 77 23z" />
<glyph unicode="&#x649;" horiz-adv-x="1306" d="M1305 615q0 -23 -14 -76t-19 -53q-3 0 -48 17t-70 17q-102 0 -213 -86q-105 -82 -105 -144q0 -74 110 -95q57 -9 206 -33q110 -18 110 -73q0 -150 -82 -233q-58 -58 -223 -128q-218 -92 -407 -92q-155 0 -251 68q-108 78 -108 228q0 227 145 431q14 20 24 20q7 0 7 -10 q0 -8 -4 -16q-96 -197 -96 -303q0 -121 103 -191q88 -60 207 -60q238 0 446 92q153 68 153 97q0 12 -219 40q-107 14 -150 49q-51 42 -51 144q0 126 154 294t278 168q31 0 68 -16q49 -21 49 -56z" />
<glyph unicode="&#x64b;" d="M469 1527l-38 -97l-371 -181l37 89zM479 1687l-38 -97l-371 -181l37 89z" />
<glyph unicode="&#x64c;" d="M527 1566q0 -95 -64 -158l52 -23l-9 -87q-55 9 -104 55q-133 -102 -249 -120l-52 35q72 41 75 105q2 35 -7 42q-22 16 -80 -15l-1 30q55 58 95 58q59 0 59 -61q0 -53 -37 -116q116 48 138 83q-41 41 -41 97q0 44 56.5 102.5t101.5 58.5q67 0 67 -86zM442 1572 q-19 0 -45 -19q-29 -20 -29 -38q0 -17 16.5 -42.5t32.5 -25.5q20 0 34 39q11 30 11 56q0 30 -20 30z" />
<glyph unicode="&#x64d;" d="M504 -1088l-38 -95l-363 -177l36 87zM514 -931l-38 -95l-363 -177l36 87z" />
<glyph unicode="&#x64e;" d="M469 1537l-38 -97l-371 -181l37 89z" />
<glyph unicode="&#x64f;" d="M514 1562q0 -90 -63 -154q16 -12 50 -27l-7 -83q-70 21 -112 59q-128 -108 -257 -126q-44 6 -46 38q179 59 254 125q-45 43 -45 93q0 44 56.5 102.5t100.5 58.5q69 0 69 -86zM425 1568q-18 0 -44.5 -19.5t-26.5 -36.5q0 -18 16 -43t33 -25q19 0 32 39q11 32 11 55 q0 30 -21 30z" />
<glyph unicode="&#x650;" d="M509 -931l-38 -95l-363 -177l36 87z" />
<glyph unicode="&#x651;" d="M489 1479q0 -42 -27 -86q-34 -54 -83 -54q-20 0 -42 9q-55 -99 -132 -99q-65 0 -65 92q0 53 37 121q6 11 15 13q4 -6 8 -11q-3 -28 -3 -50q0 -68 32 -68q44 0 75.5 98t34.5 98q9 0 16.5 -52t35.5 -52q33 0 48.5 81t21.5 81q28 0 28 -121z" />
<glyph unicode="&#x652;" d="M466 1393q0 -68 -52 -113q-50 -41 -119 -41q-140 0 -140 140q0 43 41 112q50 82 111 82q73 0 118 -55q41 -51 41 -125zM396 1390q0 31 -44.5 62t-77.5 31q-21 0 -39.5 -30.5t-18.5 -54.5q0 -57 98 -57q26 0 51 11q31 15 31 38z" />
<glyph unicode="&#x67e;" horiz-adv-x="1577" d="M1576 362q0 -54 -32 -132q-27 -66 -44 -82q-62 -59 -297 -119q-267 -68 -528 -68q-188 0 -313 55q-171 75 -171 240q0 121 85 219q11 13 20 13t9 -12q0 -8 -5 -18q-32 -61 -32 -122q0 -122 198 -177q129 -36 291 -36q262 0 517 67q232 61 232 104q0 44 -88 148l66 134 q14 28 28 2q64 -116 64 -216zM927 -498l81 112l118 -78l-79 -122zM793 -303l78 119l118 -74l65 92l121 -78l-84 -126l-116 74l-57 -87z" />
<glyph unicode="&#x686;" horiz-adv-x="1210" d="M1384 -714q-145 -66 -333 -141q-90 -21 -235 -21q-282 0 -443 118q-185 135 -185 407q0 242 165 429q123 139 285 204q-152 27 -226 27q-93 0 -134 -20q-15 -7 -21 -2q-7 6 -3 25q34 171 217 171q87 0 259 -24t259 -24h171q14 0 12 -8l-2 -4l-67 -136q-116 0 -242 -27 q-218 -47 -377 -160q-220 -157 -220 -386q0 -233 244 -346q185 -86 446 -86q234 0 424 34q27 5 27 -10q0 -10 -21 -20zM739 -453l81 112l118 -78l-79 -122zM605 -258l78 119l118 -74l65 92l121 -78l-84 -126l-116 74l-57 -87z" />
<glyph unicode="&#x698;" horiz-adv-x="762" d="M760 152q0 -212 -144 -379q-137 -159 -262 -159q-60 0 -135 29.5t-119 70.5q-9 8 -9 18q0 16 16 16q4 0 9 -2q62 -25 129 -25q118 0 281 141q157 136 157 219q0 92 -143 241l62 142q11 25 28 10q130 -117 130 -322zM649 1060l-81 -112l-118 78l79 122zM783 865l-78 -119 l-118 74l-65 -92l-121 78l84 126l116 -74l57 87z" />
<glyph unicode="&#x6af;" horiz-adv-x="2008" d="M2121 1577q-14 -53 -78 -135q-197 -54 -429 -144q-330 -128 -483 -242l-4 38q3 44 7 48q115 125 437 256q256 104 550 179zM2080 1301q-63 -167 -95 -195q-644 -208 -785 -303q-19 -13 -19 -20q0 -8 21 -21q196 -120 248 -167q138 -124 138 -274q0 -123 -55 -186 q-49 -56 -308 -114q-281 -63 -547 -63q-487 0 -487 298q0 132 97 255q11 14 21 16q11 2 11 -8q0 -7 -7 -19q-51 -90 -51 -173q0 -204 488 -204q390 0 648 93q128 46 128 104q0 56 -172 169q-119 78 -225 130q-24 25 -24 146q0 101 20 126q160 141 955 410zM878 601 q0 -64 -53 -126t-115 -62q-95 0 -165 65q-7 7 -9 12q3 1 6 3q50 -9 94 -9q122 0 144 50q4 10 -75 38q-84 30 -84 69q0 52 42 119q57 90 160 130q27 7 27 -46q0 -61 -28 -72q-104 -28 -104 -57q0 -1 80 -35.5t80 -78.5z" />
<glyph unicode="&#x200c;" horiz-adv-x="32" />
<glyph unicode="&#x200d;" horiz-adv-x="32" />
<glyph unicode="&#x200e;" horiz-adv-x="32" d="M213 1132l-95 -96l-24 20l63 62h-125v-1118h-32v1148h153l-59 58l24 22z" />
<glyph unicode="&#x200f;" horiz-adv-x="32" d="M32 0h-32v1118h-124l60 -62l-20 -20l-99 96l99 96l20 -22l-58 -58h154v-1148z" />
<glyph unicode="&#x2018;" horiz-adv-x="491" d="M467 1486q-89 -59 -154 -145q-76 -101 -76 -193q0 -55 32 -98q39 47 90 47q102 0 102 -100q0 -59 -48 -92q-43 -30 -104 -30q-82 0 -133 50.5t-51 132.5q0 141 108 283q97 127 234 200v-55z" />
<glyph unicode="&#x2019;" horiz-adv-x="491" d="M444 1353q0 -143 -107 -281q-91 -118 -232 -200v56q228 162 228 338q0 62 -33 101q-33 -49 -95 -49q-41 0 -69.5 28t-28.5 69q0 58 49 93q43 31 104 31q86 0 135 -50t49 -136z" />
<glyph unicode="&#x201c;" horiz-adv-x="650" d="M572 1146q-13 -6 -41 -26q-52 -51 -52 -95q82 -22 82 -112q0 -45 -31.5 -78t-76.5 -33q-52 0 -84 42q-29 38 -29 92q0 201 203 359q0 -83 1 -93q4 -40 28 -56zM302 1146q-13 -6 -41 -26q-52 -51 -52 -95q82 -22 82 -112q0 -45 -31.5 -78t-76.5 -33q-52 0 -84 42 q-29 38 -29 92q0 201 203 359q0 -83 1 -93q4 -40 28 -56z" />
<glyph unicode="&#x201d;" horiz-adv-x="650" d="M580 1151q0 -201 -203 -359q0 83 -1 93q-4 40 -28 56q13 6 41 26q52 51 52 95q-82 22 -82 112q0 46 31 78.5t77 32.5q54 0 85 -41q28 -37 28 -93zM310 1151q0 -201 -203 -359q0 83 -1 93q-4 40 -28 56q13 6 41 26q52 51 52 95q-82 22 -82 112q0 46 31 78.5t77 32.5 q54 0 85 -41q28 -37 28 -93z" />
<glyph unicode="&#x2039;" horiz-adv-x="512" d="M457 966l-228 -382l222 -380v-75l-383 455l389 457v-75z" />
<glyph unicode="&#x203a;" horiz-adv-x="512" d="M457 586l-393 -457v75l231 382l-222 381v77z" />
<glyph unicode="&#xe000;" horiz-adv-x="500" d="M0 0v0v0v0v0z" />
<glyph unicode="&#xe820;" d="M471 1069l-38 -97l-371 -181l37 89z" />
<glyph unicode="&#xe821;" d="M476 1121q0 -90 -63 -154q16 -12 50 -27l-7 -83q-70 21 -112 59q-128 -108 -257 -126q-44 6 -46 38q179 59 254 125q-45 43 -45 93q0 44 56.5 102.5t100.5 58.5q69 0 69 -86zM387 1127q-18 0 -44.5 -19.5t-26.5 -36.5q0 -18 16 -43t33 -25q19 0 32 39q11 32 11 55 q0 30 -21 30z" />
<glyph unicode="&#xe822;" d="M410 961q0 -68 -52 -113q-50 -41 -119 -41q-140 0 -140 140q0 43 41 112q50 82 111 82q73 0 118 -55q41 -51 41 -125zM340 958q0 31 -44.5 62t-77.5 31q-21 0 -39.5 -30.5t-18.5 -54.5q0 -57 98 -57q26 0 51 11q31 15 31 38z" />
<glyph unicode="&#xe823;" d="M475 1062l-38 -97l-371 -181l37 89zM485 1222l-38 -97l-371 -181l37 89z" />
<glyph unicode="&#xe824;" d="M489 1118q0 -95 -64 -158l52 -23l-9 -87q-55 9 -104 55q-133 -102 -249 -120l-52 35q72 41 75 105q2 35 -7 42q-22 16 -80 -15l-1 30q55 58 95 58q59 0 59 -61q0 -53 -37 -116q116 48 138 83q-41 41 -41 97q0 44 56.5 102.5t101.5 58.5q67 0 67 -86zM404 1124 q-19 0 -45 -19q-29 -20 -29 -38q0 -17 16.5 -42.5t32.5 -25.5q20 0 34 39q11 30 11 56q0 30 -20 30z" />
<glyph unicode="&#xe825;" d="M442 1042q0 -42 -27 -86q-34 -54 -83 -54q-20 0 -42 9q-55 -99 -132 -99q-65 0 -65 92q0 53 37 121q6 11 15 13q4 -6 8 -11q-3 -28 -3 -50q0 -68 32 -68q44 0 75.5 98t34.5 98q9 0 16.5 -52t35.5 -52q33 0 48.5 81t21.5 81q28 0 28 -121z" />
<glyph unicode="&#xe826;" d="M423 -353l-38 -95l-363 -177l36 87z" />
<glyph unicode="&#xe827;" d="M406 -516l-38 -95l-363 -177l36 87zM416 -359l-38 -95l-363 -177l36 87z" />
<glyph unicode="&#xe828;" d="M430 1021q0 -42 -27 -86q-34 -54 -83 -54q-20 0 -42 9q-55 -99 -132 -99q-65 0 -65 92q0 53 37 121q6 11 15 13q4 -6 8 -11q-3 -28 -3 -50q0 -68 32 -68q44 0 75.5 98t34.5 98q9 0 16.5 -52t35.5 -52q33 0 48.5 81t21.5 81q28 0 28 -121zM476 1362l-38 -97l-371 -181 l37 89z" />
<glyph unicode="&#xe829;" d="M449 1019q0 -43 -28 -88q-34 -55 -84 -55q-21 0 -43 10q-56 -101 -135 -101q-32 0 -50 32q-16 27 -16 61q0 55 38 124q6 11 15 13q4 -6 8 -11q-3 -29 -3 -51q0 -70 33 -70q45 0 77 100t35 100q9 0 16.5 -53t36.5 -53q33 0 49 83t22 83q29 0 29 -124zM484 1464 q0 -92 -64 -157q17 -13 51 -28l-7 -85q-71 22 -114 61q-131 -110 -262 -129q-45 6 -47 39q182 60 259 127q-46 44 -46 95q0 46 57.5 105.5t102.5 59.5q70 0 70 -88zM394 1470q-18 0 -45.5 -20t-27.5 -37q0 -18 16.5 -44t33.5 -26q19 0 33 40q11 33 11 56q0 31 -21 31z" />
<glyph unicode="&#xe82a;" d="M449 1019q0 -43 -28 -88q-34 -55 -84 -55q-21 0 -43 10q-56 -101 -135 -101q-32 0 -50 32q-16 27 -16 61q0 55 38 124q6 11 15 13q4 -6 8 -11q-3 -29 -3 -51q0 -70 33 -70q45 0 77 100t35 100q9 0 16.5 -53t36.5 -53q33 0 49 83t22 83q29 0 29 -124zM489 1347l-38 -97 l-371 -181l37 89zM489 1517l-38 -97l-371 -181l37 89z" />
<glyph unicode="&#xe82b;" d="M445 1003q0 -42 -27 -86q-34 -54 -83 -54q-20 0 -42 9q-55 -99 -132 -99q-65 0 -65 92q0 53 37 121q6 11 15 13q4 -6 8 -11q-3 -28 -3 -50q0 -68 32 -68q44 0 75.5 98t34.5 98q9 0 16.5 -52t35.5 -52q33 0 48.5 81t21.5 81q28 0 28 -121zM483 1454q0 -95 -64 -158l52 -23 l-9 -87q-55 9 -104 55q-133 -102 -249 -120l-52 35q72 41 75 105q2 35 -7 42q-22 16 -80 -15l-1 30q55 58 95 58q59 0 59 -61q0 -53 -37 -116q116 48 138 83q-41 41 -41 97q0 44 56.5 102.5t101.5 58.5q67 0 67 -86zM398 1460q-19 0 -45 -19q-29 -20 -29 -38 q0 -17 16.5 -42.5t32.5 -25.5q20 0 34 39q11 30 11 56q0 30 -20 30z" />
<glyph unicode="&#xe82c;" d="M449 1249q0 -43 -28 -88q-34 -55 -84 -55q-21 0 -43 10q-56 -101 -135 -101q-32 0 -50 32q-16 27 -16 61q0 55 38 124q6 11 15 13q4 -6 8 -11q-3 -29 -3 -51q0 -70 33 -70q45 0 77 100t35 100q9 0 16.5 -53t36.5 -53q33 0 49 83t22 83q29 0 29 -124zM469 1057l-38 -97 l-371 -181l37 89z" />
<glyph unicode="&#xe82d;" d="M449 1409q0 -43 -28 -88q-34 -55 -84 -55q-21 0 -43 10q-56 -101 -135 -101q-32 0 -50 32q-16 27 -16 61q0 55 38 124q6 11 15 13q4 -6 8 -11q-3 -29 -3 -51q0 -70 33 -70q45 0 77 100t35 100q9 0 16.5 -53t36.5 -53q33 0 49 83t22 83q29 0 29 -124zM469 1217l-38 -97 l-371 -181l37 89zM469 1057l-38 -97l-371 -181l37 89z" />
<glyph horiz-adv-x="1" d="M574 498v-9q0 -45 -21 -78q-3 -3 -7 -3q-5 0 -4 5q4 37 -7 120q-3 23 -12 85q-5 39 -6 74q0 6 13 24q20 28 27 28q5 0 3 -14q-1 -13 -1 -32q0 -48 15 -200z" />
</font>
</defs>
</svg>
