<?xml version="1.0" standalone="no"?>
<!DOCTYPE svg PUBLIC "-//W3C//DTD SVG 1.1//EN" "http://www.w3.org/Graphics/SVG/1.1/DTD/svg11.dtd" >
<svg xmlns="http://www.w3.org/2000/svg">
<metadata></metadata>
<defs>
<font id="b_jalalregular" horiz-adv-x="0" >
<font-face units-per-em="2048" ascent="1638" descent="-410" />
<missing-glyph horiz-adv-x="414" />
<glyph unicode="&#x651;&#x64b;" d="M330 1848l-19 -66l-268 -134l28 68zM330 1715l-19 -67l-268 -133l28 68zM346 1410q0 -48 -28 -84q-30 -39 -77 -39q-18 0 -32 7q-52 -87 -102 -87q-71 0 -71 80q0 95 46 118q8 -6 8 -15q0 -8 -3.5 -24.5t-3.5 -24.5q0 -46 38 -46q39 0 53 72q16 81 36 92q8 -3 19 -37 q10 -30 30 -30q34 0 48 59l17 71q22 -38 22 -112z" />
<glyph unicode="&#x651;&#x64c;" arabic-form="isolated" d="M385 1824q0 -56 -74 -127q11 -6 67 -20l-61 -55q-38 6 -77 34q-49 -36 -125 -64q-81 -30 -137 -30l28 67q19 5 58 13q-28 38 -28 71q0 53 25 101l60 28q-28 -52 -28 -94q0 -57 33 -85q45 12 74 31q-38 41 -38 86q0 33 57 84.5t91 51.5q75 0 75 -92zM335 1415 q0 -49 -28 -85q-30 -39 -77 -39q-18 0 -32 7q-52 -87 -102 -87q-71 0 -71 80q0 95 46 118q8 -6 8 -15q0 -8 -3.5 -24t-3.5 -24q0 -47 38 -47q39 0 53 73q16 81 36 92q10 -4 19 -38q8 -30 29 -30q35 0 49 59l17 71q22 -38 22 -111zM317 1813q0 49 -39 49q-20 0 -40 -16 t-20 -35q0 -41 51 -85q48 31 48 87z" />
<glyph unicode="&#x651;&#x64d;" arabic-form="isolated" d="M337 1758q0 -52 -26 -88q-29 -42 -79 -42q-18 0 -32 7q-46 -87 -102 -87q-71 0 -71 80q0 93 46 118q8 -5 8 -15q0 -8 -3.5 -24t-3.5 -24q0 -47 39 -47q37 0 52 74q17 81 36 91q8 -3 18.5 -35.5t29.5 -32.5q35 0 49 59l17 71q22 -38 22 -105zM321 1545l-18 -66l-268 -134 l27 68zM321 1412l-18 -67l-268 -133l27 68z" />
<glyph unicode="&#x651;&#x64e;" arabic-form="isolated" d="M324 1734l-19 -66l-268 -134l27 68zM335 1430q0 -49 -28 -85q-30 -39 -77 -39q-18 0 -32 7q-52 -87 -102 -87q-71 0 -71 80q0 95 46 118q8 -6 8 -15q0 -8 -3.5 -24.5t-3.5 -24.5q0 -46 38 -46q39 0 53 73q16 81 36 92q10 -4 19 -38q8 -30 29 -30q35 0 49 59l17 71 q22 -38 22 -111z" />
<glyph unicode="&#x651;&#x64f;" arabic-form="isolated" d="M348 1828q0 -56 -73 -127q11 -7 66 -20l-60 -55q-41 8 -77 33q-88 -64 -210 -82l27 68q92 22 142 53q-38 43 -38 86q0 33 57.5 84.5t91.5 51.5q74 0 74 -92zM335 1430q0 -49 -28 -85q-30 -39 -77 -39q-18 0 -32 7q-52 -87 -102 -87q-71 0 -71 80q0 95 46 118q8 -6 8 -15 q0 -8 -3.5 -24.5t-3.5 -24.5q0 -46 38 -46q39 0 53 73q16 81 36 92q10 -4 19 -38q8 -30 29 -30q35 0 49 59l17 71q22 -38 22 -111zM281 1817q0 48 -40 48q-21 0 -40 -15.5t-19 -36.5q0 -36 49 -83q50 29 50 87z" />
<glyph unicode="&#x651;&#x650;" arabic-form="isolated" d="M324 1619q0 -49 -28 -85q-30 -39 -77 -39q-18 0 -32 7q-52 -87 -102 -87q-71 0 -71 80q0 95 46 118q8 -6 8 -15q0 -8 -3.5 -24.5t-3.5 -24.5q0 -46 38 -46q39 0 53 73q15 81 36 92q7 -4 18 -38q11 -30 30 -30q35 0 49 59l17 71q22 -38 22 -111zM309 1410l-18 -67 l-269 -133l27 68z" />
<glyph unicode="&#xfedf;&#xfee0;&#xfeea;" horiz-adv-x="1533" arabic-form="isolated" d="M963 1226q-2 4 -14.5 93t-44.5 135q13 22 42 63q48 -36 48 -136v-41q0 -16 -11 -61q-13 -52 -20 -53zM1126 1078q0 -52 -29 -93q-32 -45 -82 -45q-21 0 -41 8q-48 -95 -111 -95q-73 0 -73 88t43 119l6 -11q-8 -60 -8 -52q0 -55 50 -55q41 0 60 82q21 90 38 99l11 -12 q17 -65 42 -65q41 0 56 58q4 16 17 87l5 -3q16 -35 16 -110zM1533 218q0 -132 -91 -178q-63 -32 -205 -32q-89 0 -130 22q-57 30 -68 112q-70 -142 -249 -142q-106 0 -157.5 34t-92.5 131q-33 -51 -112 -140h-48q-53 0 -121 29q-81 35 -81 77q0 15 23 71q72 176 286 249 l-6 56l104 94l20 -276q29 -151 181 -151q58 0 109 11q78 17 78 49q0 80 -66 420l124 132l13 -316q11 -270 22 -282q14 -15 65 -15q312 0 312 90q0 115 -37 327q-15 85 -61 332l133 132q55 -361 55 -836zM534 208l-37 194q-205 -127 -205 -161q0 -31 51 -50q40 -15 78 -15 q59 0 113 32z" />
<glyph unicode="&#xfedf;&#xfe82;" horiz-adv-x="1048" arabic-form="isolated" d="M1048 1029q0 -316 -202 -594q118 -183 118 -270q0 -129 -13 -147q-225 -40 -516 -40l-14 3q-3 7 -3 17q0 51 12 130q5 33 52 59q181 101 280 235q-144 174 -376 325q-9 -16 -28 -48q-180 58 -180 141q0 25 26 78q28 58 48 58q30 0 121 -58q228 -145 434 -434 q112 175 112 505l123 140q6 -72 6 -100zM793 377q-82 -108 -224 -218q319 0 319 54q0 48 -95 164zM242 1066q-105 0 -152 40q-17 -42 -30 -65q-22 -40 -45 -52l-3 10q0 40 20.5 107t44.5 95q89 -50 165 -50q95 0 141 22l105 51l6 -6q-21 -68 -102 -112q-73 -40 -150 -40z " />
<glyph unicode="&#xfee0;&#xfe82;" horiz-adv-x="1178" arabic-form="final" d="M1213 0h-95q-151 0 -205 185q-30 102 -33 311q-56 -333 -159 -420t-440 -87q-20 0 -30 2l223 82q131 49 211 110q17 13 17 69q0 126 -106 275q-90 126 -210 216l-28 -48q-180 59 -180 140q0 25 26 78q28 58 48 58q36 0 122 -52q159 -96 259 -254q108 -168 108 -344 q0 -49 -12 -101q57 52 88 179q24 99 24 204q0 90 -14 209q-2 18 -26 209l116 161l51 -831q7 -108 15 -128q21 -47 104 -47q21 0 63 1t63 1v-178zM239 1061q-105 0 -152 40q-17 -42 -30 -65q-22 -40 -45 -52l-2 10q0 40 20.5 107t43.5 95q90 -51 165 -51q95 0 142 23l104 51 l6 -6q-21 -68 -102 -112q-73 -40 -150 -40z" />
<glyph unicode="&#xfedf;&#xfe84;" horiz-adv-x="1048" arabic-form="isolated" d="M1048 1029q0 -316 -202 -594q118 -183 118 -270q0 -129 -13 -147q-225 -40 -516 -40l-14 3q-3 7 -3 17q0 51 12 130q5 33 52 59q181 101 280 235q-144 174 -376 325q-9 -16 -28 -48q-180 58 -180 141q0 25 26 78q28 58 48 58q30 0 121 -58q228 -145 434 -434 q112 175 112 505l123 140q6 -72 6 -100zM793 377q-82 -108 -224 -218q319 0 319 54q0 48 -95 164zM323 1094q-130 -38 -219 -116l-50 12q13 40 78 77q-62 22 -62 94q0 54 38 102t91 48q38 0 74 -31l-37 -67q-27 17 -51 17q-56 0 -56 -46q0 -43 77 -43q36 0 78 14l75 25l2 -3 q-1 -4 -38 -83z" />
<glyph unicode="&#xfee0;&#xfe84;" horiz-adv-x="1178" arabic-form="final" d="M1213 0h-95q-151 0 -205 185q-30 102 -33 311q-56 -333 -159 -420t-440 -87q-20 0 -30 2l223 82q131 49 211 110q17 13 17 69q0 126 -106 275q-90 126 -210 216l-28 -48q-180 59 -180 140q0 25 26 78q28 58 48 58q36 0 122 -52q159 -96 259 -254q108 -168 108 -344 q0 -49 -12 -101q57 52 88 179q24 99 24 204q0 90 -14 209q-2 18 -26 209l116 161l51 -831q7 -108 15 -128q21 -47 104 -47q21 0 63 1t63 1v-178zM317 1084q-129 -38 -219 -116l-49 12q13 40 77 77q-61 22 -61 94q0 55 36 100q39 49 92 49q39 0 75 -30l-38 -68q-26 18 -50 18 q-57 0 -57 -46q0 -43 77 -43q40 0 154 39l2 -3q-1 -5 -39 -83z" />
<glyph unicode="&#xfedf;&#xfe88;" horiz-adv-x="1048" arabic-form="isolated" d="M1048 1029q0 -316 -202 -594q118 -183 118 -270q0 -129 -13 -147q-225 -40 -516 -40l-14 3q-3 7 -3 17q0 51 12 130q5 33 52 59q181 101 280 235q-144 174 -376 325q-9 -16 -28 -48q-180 58 -180 141q0 25 26 78q28 58 48 58q30 0 121 -58q228 -145 434 -434 q112 175 112 505l123 140q6 -72 6 -100zM793 377q-82 -108 -224 -218q319 0 319 54q0 48 -95 164zM513 -341q-130 -39 -220 -116l-49 12q13 40 78 77q-62 21 -62 93q0 55 37 102.5t91 47.5q39 0 75 -30l-37 -68q-27 17 -51 17q-56 0 -56 -45q0 -44 76 -44q37 0 154 40l2 -3 q-1 -5 -38 -83z" />
<glyph unicode="&#xfee0;&#xfe88;" horiz-adv-x="1178" arabic-form="final" d="M1213 0h-95q-151 0 -205 185q-30 102 -33 311q-56 -333 -159 -420t-440 -87q-20 0 -30 2l223 82q131 49 211 110q17 13 17 69q0 126 -106 275q-90 126 -210 216l-28 -48q-180 59 -180 140q0 25 26 78q28 58 48 58q36 0 122 -52q159 -96 259 -254q108 -168 108 -344 q0 -49 -12 -101q57 52 88 179q24 99 24 204q0 90 -14 209q-2 18 -26 209l116 161l51 -831q7 -108 15 -128q21 -47 104 -47q21 0 63 1t63 1v-178zM463 -372q-130 -39 -219 -116l-50 12q14 40 78 76q-62 22 -62 94q0 55 37.5 102.5t91.5 47.5q39 0 74 -30l-37 -68 q-27 17 -50 17q-57 0 -57 -45q0 -44 77 -44q39 0 153 40l2 -3q-1 -5 -38 -83z" />
<glyph unicode="&#xfedf;&#xfe8e;" horiz-adv-x="1048" arabic-form="isolated" d="M1048 1029q0 -316 -202 -594q118 -183 118 -270q0 -129 -13 -147q-225 -40 -516 -40l-14 3q-3 7 -3 17q0 51 12 130q5 33 52 59q181 101 280 235q-144 174 -376 325q-9 -16 -28 -48q-180 58 -180 141q0 25 26 78q28 58 48 58q30 0 121 -58q228 -145 434 -434 q112 175 112 505l123 140q6 -72 6 -100zM793 377q-82 -108 -224 -218q319 0 319 54q0 48 -95 164z" />
<glyph unicode="&#xfee0;&#xfe8e;" horiz-adv-x="1178" arabic-form="final" d="M1213 0h-95q-151 0 -205 185q-30 102 -33 311q-56 -333 -159 -420t-440 -87q-20 0 -30 2l223 82q131 49 211 110q17 13 17 69q0 126 -106 275q-90 126 -210 216l-28 -48q-180 59 -180 140q0 25 26 78q28 58 48 58q36 0 122 -52q159 -96 259 -254q108 -168 108 -344 q0 -49 -12 -101q57 52 88 179q24 99 24 204q0 90 -14 209q-2 18 -26 209l116 161l51 -831q7 -108 15 -128q21 -47 104 -47q21 0 63 1t63 1v-178z" />
<glyph unicode="&#x652;&#x64e;" horiz-adv-x="1" d="M139 1300l51 -43l-3 -268l-49 49z" />
<glyph unicode="&#x652;&#x64b;" horiz-adv-x="1" d="M573 937l-61 -115l-148 89l67 112zM291 899l-63 -114l-146 89l66 112z" />
<glyph unicode="&#x652;&#x64d;" horiz-adv-x="1" d="M1018 -617l-61 -115l-148 89l67 112zM736 -655l-63 -114l-146 89l66 112z" />
<glyph unicode="&#x6c0;" horiz-adv-x="695" arabic-form="isolated" d="M478 860q-130 -39 -219 -117l-50 12q13 40 78 77q-62 22 -62 94q0 55 37.5 102.5t90.5 47.5q39 0 75 -31l-37 -67q-27 17 -51 17q-56 0 -56 -46q0 -43 77 -43q36 0 78 14l75 25l2 -3q-1 -4 -38 -82zM693 284q0 -133 -74 -208.5t-206 -75.5q-128 0 -180 45q-55 49 -55 175 q0 204 209 470q306 -145 306 -406zM600 271q0 54 -90 138q-74 70 -140 105q-99 -148 -99 -232q0 -104 120 -104q60 0 123 20q86 27 86 73z" />
<glyph unicode="&#x6a9;" horiz-adv-x="1479" arabic-form="isolated" d="M1504 1140l-60 -178q-304 -86 -425 -210q460 -211 460 -474q0 -208 -342 -277q-169 -34 -500 -34q-203 0 -298 34q-161 57 -161 221q0 79 46 190q53 127 115 145l8 -11q-3 -28 -32 -90q-27 -57 -27 -93q0 -150 156 -196q78 -23 280 -23q116 0 338 20q265 24 307 53 q24 17 24 44q0 107 -212 233q-155 92 -311 142v117q35 82 287 223q209 117 347 164z" />
<glyph unicode="&#x6cc;" horiz-adv-x="1482" arabic-form="isolated" d="M1482 613l-71 -134q-30 54 -101 54q-98 0 -219 -114q-99 -93 -157 -201q121 -34 247 -71q195 -57 195 -106q0 -166 -328 -328q-291 -144 -481 -144q-179 0 -281 86q-108 93 -108 269q0 91 49 227q58 160 125 180l8 -10q-8 -25 -63 -144q-39 -84 -39 -163q0 -134 100 -206 q88 -62 228 -62q135 0 308 46q189 50 284 123q26 20 26 33q0 21 -196.5 68t-196.5 74q0 161 192 384q197 229 356 229q120 0 123 -90z" />
<glyph unicode="&#x67e;" horiz-adv-x="1495" arabic-form="final" d="M1531 0h-105q-56 0 -104 35q-2 1 -85 75q-78 -100 -278 -131q-103 -16 -322 -16q-203 0 -298 34q-161 58 -161 221q0 78 46 189q52 126 114 145l9 -11q-4 -26 -39 -89q-31 -56 -31 -94q0 -149 162 -195q81 -23 285 -23q138 0 269 19q211 30 211 98q0 46 -100 164l92 142 q94 -165 94 -289q0 -37 -8 -71q60 -25 249 -25v-178zM1012 -259l-62 -115l-147 89l67 112zM911 -468l-67 -113l-120 74l63 114zM729 -297l-62 -114l-147 89l67 112z" />
<glyph unicode="&#x67e;" horiz-adv-x="524" arabic-form="initial" d="M438 274q0 -141 -103 -212q-89 -62 -235 -62h-130v178q182 0 216 3q166 15 166 76q0 43 -98 164l90 141q94 -159 94 -288zM519 -259l-61 -115l-148 89l67 112zM418 -468l-67 -113l-120 74l63 114zM236 -297l-62 -114l-147 89l67 112z" />
<glyph unicode="&#x67e;" horiz-adv-x="630" arabic-form="medial" d="M665 0h-102q-56 0 -105 35q-2 2 -84 75q-88 -110 -290 -110h-114v178q185 0 208 2q161 14 161 77q0 43 -99 164l91 142q94 -155 94 -289q0 -44 -7 -71q57 -25 247 -25v-178zM510 -259l-62 -115l-148 89l67 112zM409 -468l-67 -113l-120 74l62 114zM227 -297l-63 -114 l-146 89l66 112z" />
<glyph unicode="&#x686;" horiz-adv-x="1244" arabic-form="final" d="M964 -178l-57 -104l-135 81l60 103zM857 -372l-56 -104l-111 68l60 103zM686 -212l-57 -104l-135 81l60 103zM1282 0h-92q-216 0 -216 191q-61 16 -142 16q-207 0 -374 -149q-173 -154 -173 -359q0 -188 158 -285q131 -80 333 -80q112 0 310 29q-94 -118 -167 -154.5 t-222 -36.5q-496 0 -496 418q0 172 89 352q90 184 227 283q-81 20 -140 20q-69 0 -110 -20q-60 -29 -79 -33l-8 11q3 70 83 133q77 61 149 61q78 0 232.5 -28t233.5 -28q88 0 195 19l6 -7q-3 -9 -94 -140q11 -42 143 -42q26 0 77 3.5t77 3.5v-178z" />
<glyph unicode="&#x686;" horiz-adv-x="1155" arabic-form="initial" d="M1090 193q-81 7 -164 7q-84 0 -254 -59q-232 -81 -259 -88q-196 -53 -443 -53v178q225 0 387 23q130 18 375 79q-314 168 -423 168q-49 0 -88 -23q-58 -35 -74 -39l-1 7q0 68 65 132t133 64q96 0 341.5 -119.5t386.5 -119.5q37 0 73 6l11 -8q-2 -10 -66 -155zM770 -259 l-62 -115l-147 89l66 112zM669 -468l-67 -113l-120 74l62 114zM487 -297l-63 -114l-146 89l66 112z" />
<glyph unicode="&#x686;" horiz-adv-x="1374" arabic-form="medial" d="M1412 0h-131q-166 0 -205 195q-25 0 -75 2.5t-75 2.5q-83 0 -254 -59l-259 -88q-196 -53 -443 -53v178q225 0 387 23q130 18 375 79q-314 168 -423 168q-49 0 -88 -23q-60 -35 -74 -39l-1 7q0 68 65 132t133 64q96 0 341.5 -119.5t386.5 -119.5q37 0 73 6l11 -8 q-2 -10 -63 -149q22 -27 150 -27q28 0 84.5 3t84.5 3v-178zM770 -259l-62 -115l-147 89l66 112zM669 -468l-67 -113l-120 74l62 114zM487 -297l-63 -114l-146 89l66 112z" />
<glyph unicode="&#x698;" horiz-adv-x="808" arabic-form="final" d="M848 0h-88q-13 0 -147 35q0 -145 -63 -278q-78 -165 -210 -165q-58 0 -167 51t-152 95l5 1q24 0 71 -11.5t71 -11.5q139 0 254 104q111 101 138 240q-13 48 -76 139q-56 81 -100 125l89 142q38 -50 73 -140q38 -98 61 -133q9 -14 63 -18q36 -3 103 0l75 3v-178zM618 868 l-61 -116l-148 89l67 112zM418 1049l-61 -114l-126 75l67 113zM335 829l-62 -114l-147 89l67 112z" />
<glyph unicode="&#x6af;" horiz-adv-x="1673" arabic-form="final" d="M1486 1314l-28 -92q-110 -34 -289 -133q-183 -102 -263 -177v69q0 46 259 184q240 128 321 149zM1710 0h-97q-121 0 -189 130q-146 -163 -787 -163q-203 0 -298 34q-161 57 -161 221q0 78 46 189q53 128 115 146l8 -11q-3 -28 -32 -90q-27 -57 -27 -93q0 -150 156 -196 q78 -23 280 -23q118 0 338 20q262 24 307 53q24 16 24 44q0 106 -213 233q-156 93 -310 142v117q35 82 287 223q211 118 347 164l-60 -178q-304 -86 -425 -210q460 -211 460 -474q0 -55 -18 -92q33 -8 196 -8h53v-178z" />
<glyph unicode="&#x6af;" horiz-adv-x="663" arabic-form="initial" d="M658 1314l-28 -92q-111 -34 -289 -133q-182 -101 -263 -177v69q0 45 259 184q240 129 321 149zM689 1140l-60 -178q-294 -77 -426 -210q461 -213 461 -474q0 -278 -465 -278h-221v178q-47 0 59.5 -2.5t140.5 -2.5q399 0 399 87q0 107 -212 234q-153 91 -310 142v117 q35 83 286 223q207 116 348 164z" />
<glyph unicode="&#x6af;" horiz-adv-x="856" arabic-form="medial" d="M658 1314l-28 -92q-111 -34 -289 -133q-182 -101 -263 -177v69q0 45 259 184q240 129 321 149zM893 0h-95q-118 0 -186 124q-102 -124 -413 -124h-229v178h200q181 0 227 4q180 16 180 78q0 107 -213 234q-156 93 -309 142v117q34 82 287 223q212 118 347 164l-60 -178 q-294 -77 -426 -210q461 -213 461 -474q0 -48 -17 -93q42 -7 195 -7h51v-178z" />
<glyph unicode="&#x622;" horiz-adv-x="601" arabic-form="final" d="M313 1292q-105 0 -151 40q-22 -51 -30 -65q-22 -38 -46 -52l-2 10q0 40 20 105q21 69 44 97q90 -50 165 -50q97 0 142 22l105 51l6 -6q-22 -68 -103 -112q-72 -40 -150 -40zM636 0h-91q-138 0 -189 107q-28 60 -46 234l-71 702l114 161l42 -852q5 -106 15 -128 q21 -48 105 -48q20 0 60.5 1t60.5 1v-178z" />
<glyph unicode="&#x623;" horiz-adv-x="601" arabic-form="final" d="M383 1328q-130 -38 -219 -116l-50 12q14 40 78 77q-62 22 -62 94q0 55 37 100q39 49 92 49q39 0 74 -30l-37 -68q-27 17 -51 17q-56 0 -56 -45q0 -43 77 -43q42 0 153 39l2 -3q-1 -5 -38 -83zM636 0h-91q-138 0 -189 107q-28 60 -46 234l-71 702l114 161l42 -852 q5 -106 15 -128q21 -48 105 -48q20 0 60.5 1t60.5 1v-178z" />
<glyph unicode="&#x624;" horiz-adv-x="912" arabic-form="final" d="M468 799q-130 -39 -220 -116l-49 12q13 40 78 77q-62 21 -62 94q0 55 36 100q39 49 92 49q39 0 75 -30l-37 -68q-27 17 -51 17q-56 0 -56 -45q0 -44 76 -44q37 0 154 40l2 -3q-1 -5 -38 -83zM948 0h-93q-108 0 -165 44q-20 -193 -104 -318q-103 -154 -280 -154 q-60 0 -145 51q-73 44 -122 98q112 -30 170 -30q138 0 257 92q123 95 143 229q-149 0 -222 29q-114 45 -114 170q0 98 57 201q65 118 156 118q92 0 151 -136q42 -98 54 -216h257v-178zM617 179q-18 65 -64 128q-56 77 -111 77q-29 0 -66 -43t-37 -72q0 -89 278 -90z" />
<glyph unicode="&#x625;" horiz-adv-x="601" arabic-form="final" d="M510 -336q-130 -39 -220 -116l-49 12q13 40 78 76q-62 22 -62 94q0 55 37.5 102.5t90.5 47.5q39 0 75 -30l-37 -68q-27 17 -51 17q-56 0 -56 -45q0 -44 76 -44q37 0 154 40l2 -3q-1 -5 -38 -83zM636 0h-91q-138 0 -189 107q-28 60 -46 234l-71 702l114 161l42 -852 q5 -106 15 -128q21 -48 105 -48q20 0 60.5 1t60.5 1v-178z" />
<glyph unicode="&#x626;" horiz-adv-x="1331" arabic-form="final" d="M1365 0h-268q162 -62 162 -138q0 -117 -292 -240q-259 -109 -400 -109q-178 0 -280 88q-109 93 -109 268q0 91 49 227q57 159 125 180l8 -10q-8 -27 -63 -145q-39 -84 -39 -162q0 -135 100 -206q87 -62 228 -62q92 0 288 43q233 51 233 103q0 27 -250 101q-70 21 -67 34 l31 125q10 40 251 64q171 17 293 17v-178zM457 488q-130 -39 -219 -116l-50 12q14 40 78 76q-62 22 -62 94q0 55 37.5 102.5t91.5 47.5q39 0 74 -30l-37 -68q-27 17 -51 17q-56 0 -56 -45q0 -44 77 -44q39 0 153 40l2 -3q-1 -5 -38 -83z" />
<glyph unicode="&#x626;" horiz-adv-x="438" arabic-form="initial" d="M387 799q-130 -39 -219 -116l-50 12q14 40 78 77q-62 21 -62 94q0 55 37 100q39 49 92 49q39 0 74 -30l-37 -68q-27 17 -51 17q-56 0 -56 -45q0 -44 77 -44q39 0 153 40l2 -3q-1 -5 -38 -83zM438 274q0 -141 -103 -212q-89 -62 -235 -62h-130v178q182 0 216 3 q166 15 166 76q0 43 -98 164l90 141q94 -159 94 -288z" />
<glyph unicode="&#x626;" horiz-adv-x="636" arabic-form="medial" d="M387 799q-130 -39 -219 -116l-50 12q14 40 78 77q-62 21 -62 94q0 55 37 100q39 49 92 49q39 0 74 -30l-37 -68q-27 17 -51 17q-56 0 -56 -45q0 -44 77 -44q39 0 153 40l2 -3q-1 -5 -38 -83zM665 0h-102q-56 0 -105 35q-2 2 -84 75q-88 -110 -290 -110h-114v178 q185 0 208 2q161 14 161 77q0 43 -99 164l91 142q94 -155 94 -289q0 -44 -7 -71q57 -25 247 -25v-178z" />
<glyph unicode="&#x627;" horiz-adv-x="555" arabic-form="final" d="M586 0h-91q-139 0 -190 107q-27 56 -45 234l-71 702l114 161l41 -852q5 -107 15 -129q22 -47 106 -47q20 0 60.5 1t60.5 1v-178z" />
<glyph unicode="&#x628;" horiz-adv-x="1495" arabic-form="final" d="M1531 0h-105q-56 0 -104 35q-2 1 -85 75q-78 -100 -278 -131q-103 -16 -322 -16q-203 0 -298 34q-161 58 -161 221q0 78 46 189q52 126 114 145l9 -11q-4 -26 -39 -89q-31 -56 -31 -94q0 -149 162 -195q81 -23 285 -23q138 0 269 19q211 30 211 98q0 46 -100 164l92 142 q94 -165 94 -289q0 -37 -8 -71q60 -25 249 -25v-178zM819 -264l-63 -117l-153 94l68 115z" />
<glyph unicode="&#x628;" horiz-adv-x="428" arabic-form="initial" d="M438 274q0 -141 -103 -212q-89 -62 -235 -62h-130v178q182 0 216 3q166 15 166 76q0 43 -98 164l90 141q94 -159 94 -288zM275 -264l-63 -117l-154 94l68 115z" />
<glyph unicode="&#x628;" horiz-adv-x="630" arabic-form="medial" d="M665 0h-102q-56 0 -105 35q-2 2 -84 75q-88 -110 -290 -110h-114v178q185 0 208 2q161 14 161 77q0 43 -99 164l91 142q94 -155 94 -289q0 -44 -7 -71q57 -25 247 -25v-178zM305 -264l-63 -117l-153 94l68 115z" />
<glyph unicode="&#x629;" horiz-adv-x="926" arabic-form="final" d="M478 860q-130 -39 -219 -117l-50 12q13 40 78 77q-62 22 -62 94q0 55 37.5 102.5t90.5 47.5q39 0 75 -31l-37 -67q-27 17 -51 17q-56 0 -56 -46q0 -43 77 -43q36 0 78 14l75 25l2 -3q-1 -4 -38 -82zM964 0h-253q-91 0 -132 127q-16 49 -35 203q-36 -75 -57 -102 q-43 -55 -97 -55q-67 0 -132 29q-80 36 -80 93q0 16 24 84q32 91 118 152q56 36 166 109q13 9 6 30l85 82q19 -70 30 -276q10 -192 30 -241q23 -57 88 -57h239v-178zM531 389q0 27 -25 173q-196 -109 -199 -167q7 -24 57 -43q43 -16 75 -16q92 0 92 53z" />
<glyph unicode="&#x62a;" horiz-adv-x="1495" arabic-form="final" d="M1531 0h-105q-56 0 -104 35q-2 1 -85 75q-78 -100 -278 -131q-103 -16 -322 -16q-203 0 -298 34q-161 58 -161 221q0 78 46 189q52 126 114 145l9 -11q-4 -26 -39 -89q-31 -56 -31 -94q0 -149 162 -195q81 -23 285 -23q138 0 269 19q211 30 211 98q0 46 -100 164l92 142 q94 -165 94 -289q0 -37 -8 -71q60 -25 249 -25v-178zM992 747l-62 -115l-147 89l66 112zM709 709l-63 -114l-146 89l67 112z" />
<glyph unicode="&#x62a;" horiz-adv-x="507" arabic-form="initial" d="M438 274q0 -141 -103 -212q-89 -62 -235 -62h-130v178q182 0 216 3q166 15 166 76q0 43 -98 164l90 141q94 -159 94 -288zM507 924l-62 -115l-147 89l67 112zM224 886l-62 -114l-147 89l67 112z" />
<glyph unicode="&#x62a;" horiz-adv-x="636" arabic-form="medial" d="M665 0h-102q-56 0 -105 35q-2 2 -84 75q-88 -110 -290 -110h-114v178q185 0 208 2q161 14 161 77q0 43 -99 164l91 142q94 -155 94 -289q0 -44 -7 -71q57 -25 247 -25v-178zM537 924l-61 -115l-148 89l67 112zM255 886l-63 -114l-147 89l67 112z" />
<glyph unicode="&#x62b;" horiz-adv-x="1495" arabic-form="final" d="M1531 0h-105q-56 0 -104 35q-2 1 -85 75q-78 -100 -278 -131q-103 -16 -322 -16q-203 0 -298 34q-161 58 -161 221q0 78 46 189q52 126 114 145l9 -11q-4 -26 -39 -89q-31 -56 -31 -94q0 -149 162 -195q81 -23 285 -23q138 0 269 19q211 30 211 98q0 46 -100 164l92 142 q94 -165 94 -289q0 -37 -8 -71q60 -25 249 -25v-178zM992 747l-62 -115l-147 89l66 112zM792 929l-62 -114l-125 75l67 113zM709 709l-63 -114l-146 89l67 112z" />
<glyph unicode="&#x62b;" horiz-adv-x="527" arabic-form="initial" d="M438 274q0 -141 -103 -212q-89 -62 -235 -62h-130v178q182 0 216 3q166 15 166 76q0 43 -98 164l90 141q94 -159 94 -288zM527 868l-61 -116l-148 89l67 112zM327 1049l-61 -114l-126 75l67 113zM244 829l-62 -114l-147 89l67 112z" />
<glyph unicode="&#x62b;" horiz-adv-x="638" arabic-form="medial" d="M665 0h-102q-56 0 -105 35q-2 2 -84 75q-88 -110 -290 -110h-114v178q185 0 208 2q161 14 161 77q0 43 -99 164l91 142q94 -155 94 -289q0 -44 -7 -71q57 -25 247 -25v-178zM527 868l-61 -116l-148 89l67 112zM327 1049l-61 -114l-126 75l67 113zM244 829l-62 -114 l-147 89l67 112z" />
<glyph unicode="&#x62c;" horiz-adv-x="1244" arabic-form="final" d="M1282 0h-92q-216 0 -216 191q-61 16 -142 16q-207 0 -374 -149q-173 -154 -173 -359q0 -188 158 -285q131 -80 333 -80q112 0 310 29q-94 -118 -167 -154.5t-222 -36.5q-496 0 -496 418q0 172 89 352q90 184 227 283q-81 20 -140 20q-69 0 -110 -20q-60 -29 -79 -33 l-8 11q3 70 83 133q77 61 149 61q78 0 232.5 -28t233.5 -28q88 0 195 19l6 -7q-3 -9 -94 -140q11 -42 143 -42q26 0 77 3.5t77 3.5v-178zM807 -233l-63 -117l-153 93l68 116z" />
<glyph unicode="&#x62c;" horiz-adv-x="1147" arabic-form="initial" d="M1090 193q-81 7 -164 7q-84 0 -254 -59q-232 -81 -259 -88q-196 -53 -443 -53v178q225 0 387 23q130 18 375 79q-314 168 -423 168q-49 0 -88 -23q-58 -35 -74 -39l-1 7q0 68 65 132t133 64q96 0 341.5 -119.5t386.5 -119.5q37 0 73 6l11 -8q-2 -10 -66 -155zM500 -264 l-63 -117l-153 94l67 115z" />
<glyph unicode="&#x62c;" horiz-adv-x="1374" arabic-form="medial" d="M1412 0h-131q-166 0 -205 195q-25 0 -75 2.5t-75 2.5q-83 0 -254 -59l-259 -88q-196 -53 -443 -53v178q225 0 387 23q130 18 375 79q-314 168 -423 168q-49 0 -88 -23q-60 -35 -74 -39l-1 7q0 68 65 132t133 64q96 0 341.5 -119.5t386.5 -119.5q37 0 73 6l11 -8 q-2 -10 -63 -149q22 -27 150 -27q28 0 84.5 3t84.5 3v-178zM500 -264l-63 -117l-153 94l67 115z" />
<glyph unicode="&#x62d;" horiz-adv-x="1250" arabic-form="final" d="M1282 0h-92q-216 0 -216 191q-61 16 -142 16q-207 0 -374 -149q-173 -154 -173 -359q0 -188 158 -285q131 -80 333 -80q112 0 310 29q-94 -118 -167 -154.5t-222 -36.5q-496 0 -496 418q0 172 89 352q90 184 227 283q-81 20 -140 20q-69 0 -110 -20q-60 -29 -79 -33 l-8 11q3 70 83 133q77 61 149 61q78 0 232.5 -28t233.5 -28q88 0 195 19l6 -7q-3 -9 -94 -140q11 -42 143 -42q26 0 77 3.5t77 3.5v-178z" />
<glyph unicode="&#x62d;" horiz-adv-x="1157" arabic-form="initial" d="M1090 193q-81 7 -164 7q-84 0 -254 -59q-232 -81 -259 -88q-196 -53 -443 -53v178q225 0 387 23q130 18 375 79q-314 168 -423 168q-49 0 -88 -23q-58 -35 -74 -39l-1 7q0 68 65 132t133 64q96 0 341.5 -119.5t386.5 -119.5q37 0 73 6l11 -8q-2 -10 -66 -155z" />
<glyph unicode="&#x62d;" horiz-adv-x="1382" arabic-form="medial" d="M1412 0h-131q-166 0 -205 195q-25 0 -75 2.5t-75 2.5q-83 0 -254 -59l-259 -88q-196 -53 -443 -53v178q225 0 387 23q130 18 375 79q-314 168 -423 168q-49 0 -88 -23q-60 -35 -74 -39l-1 7q0 68 65 132t133 64q96 0 341.5 -119.5t386.5 -119.5q37 0 73 6l11 -8 q-2 -10 -63 -149q22 -27 150 -27q28 0 84.5 3t84.5 3v-178z" />
<glyph unicode="&#x62e;" horiz-adv-x="1244" arabic-form="final" d="M1282 0h-92q-216 0 -216 191q-61 16 -142 16q-207 0 -374 -149q-173 -154 -173 -359q0 -188 158 -285q131 -80 333 -80q112 0 310 29q-94 -118 -167 -154.5t-222 -36.5q-496 0 -496 418q0 172 89 352q90 184 227 283q-81 20 -140 20q-69 0 -110 -20q-60 -29 -79 -33 l-8 11q3 70 83 133q77 61 149 61q78 0 232.5 -28t233.5 -28q88 0 195 19l6 -7q-3 -9 -94 -140q11 -42 143 -42q26 0 77 3.5t77 3.5v-178zM688 706l-63 -117l-153 94l67 115z" />
<glyph unicode="&#x62e;" horiz-adv-x="1147" arabic-form="initial" d="M1090 193q-81 7 -164 7q-84 0 -254 -59q-232 -81 -259 -88q-196 -53 -443 -53v178q225 0 387 23q130 18 375 79q-314 168 -423 168q-49 0 -88 -23q-58 -35 -74 -39l-1 7q0 68 65 132t133 64q96 0 341.5 -119.5t386.5 -119.5q37 0 73 6l11 -8q-2 -10 -66 -155zM456 918 l-63 -117l-154 94l68 115z" />
<glyph unicode="&#x62e;" horiz-adv-x="1374" arabic-form="medial" d="M1412 0h-131q-166 0 -205 195q-25 0 -75 2.5t-75 2.5q-83 0 -254 -59l-259 -88q-196 -53 -443 -53v178q225 0 387 23q130 18 375 79q-314 168 -423 168q-49 0 -88 -23q-60 -35 -74 -39l-1 7q0 68 65 132t133 64q96 0 341.5 -119.5t386.5 -119.5q37 0 73 6l11 -8 q-2 -10 -63 -149q22 -27 150 -27q28 0 84.5 3t84.5 3v-178zM456 918l-63 -117l-154 94l68 115z" />
<glyph unicode="&#x62f;" horiz-adv-x="890" arabic-form="final" d="M920 0h-60q-100 0 -151 79q-34 -50 -170 -77q-104 -21 -197 -21q-81 0 -113 13q-54 22 -54 90q0 39 16 100q20 76 46 80l4 -4q0 -8 -3.5 -24t-3.5 -24q0 -58 118 -58q148 0 274 56q-9 66 -60 184q-48 114 -90 173l83 152q64 -114 99 -261q20 -91 60 -272q24 -9 64 -11 q33 -2 72 0q59 3 66 3v-178z" />
<glyph unicode="&#x630;" horiz-adv-x="889" arabic-form="final" d="M920 0h-60q-100 0 -151 79q-34 -50 -170 -77q-104 -21 -197 -21q-81 0 -113 13q-54 22 -54 90q0 39 16 100q20 76 46 80l4 -4q0 -8 -3.5 -24t-3.5 -24q0 -58 118 -58q148 0 274 56q-9 66 -60 184q-48 114 -90 173l83 152q64 -114 99 -261q20 -91 60 -272q24 -9 64 -11 q33 -2 72 0q59 3 66 3v-178zM591 918l-63 -117l-153 94l67 115z" />
<glyph unicode="&#x631;" horiz-adv-x="808" arabic-form="final" d="M848 0h-88q-13 0 -147 35q0 -145 -63 -278q-78 -165 -210 -165q-58 0 -167 51t-152 95l5 1q24 0 71 -11.5t71 -11.5q139 0 254 104q111 101 138 240q-13 48 -76 139q-56 81 -100 125l89 142q38 -50 73 -140q38 -98 61 -133q9 -14 63 -18q36 -3 103 0l75 3v-178z" />
<glyph unicode="&#x632;" horiz-adv-x="808" arabic-form="final" d="M848 0h-88q-13 0 -147 35q0 -145 -63 -278q-78 -165 -210 -165q-58 0 -167 51t-152 95l5 1q24 0 71 -11.5t71 -11.5q139 0 254 104q111 101 138 240q-13 48 -76 139q-56 81 -100 125l89 142q38 -50 73 -140q38 -98 61 -133q9 -14 63 -18q36 -3 103 0l75 3v-178zM449 837 l-62 -117l-154 94l68 115z" />
<glyph unicode="&#x633;" horiz-adv-x="1933" arabic-form="final" d="M1962 0h-69q-105 0 -175 84q-42 -84 -110 -84q-84 0 -164 32q-94 38 -127 102q-29 -54 -87 -93q-61 -41 -120 -41q-77 0 -153 63q-18 -192 -170 -310q-143 -111 -340 -111q-116 0 -188 54q-81 60 -81 173q0 62 37 175q42 127 84 144l7 -12q-4 -21 -29 -99 q-19 -59 -19 -103q0 -154 208 -154q281 0 419 184q23 31 23 51q0 28 -32 90q-29 57 -53 84l90 127q63 -178 168 -178q111 0 163 64q13 16 50 107q33 81 42 81q17 0 17 -32q0 -20 -6.5 -60.5t-6.5 -60.5q0 -41 90 -77q78 -31 129 -31q100 0 100 50q0 75 -64 170l71 121 q30 -52 49 -118q6 -60 25 -175q6 -22 31 -32q17 -7 191 -7v-178z" />
<glyph unicode="&#x633;" horiz-adv-x="1243" arabic-form="initial" d="M1243 223q0 -219 -132 -219q-216 0 -280 122q-32 -58 -119 -94q-77 -32 -152 -32q-110 0 -165 31q-64 37 -96 135q-36 -120 -125 -150q-47 -16 -204 -16v178l148 -1q98 5 144 38q26 19 50 63q29 54 43 68q16 -20 31 -74q14 -48 41 -66q42 -28 144 -28q124 0 183 61 q17 18 55 105q34 79 42 79q17 0 17 -31q0 -20 -7 -60.5t-7 -61.5q0 -41 86 -71q71 -25 124 -25q100 0 100 49q0 77 -66 170l72 121q73 -127 73 -291z" />
<glyph unicode="&#x633;" horiz-adv-x="1446" arabic-form="medial" d="M1476 0h-67q-109 0 -176 84q-42 -84 -110 -84q-84 0 -164 32q-92 37 -127 101q-32 -59 -119 -98q-78 -35 -153 -35q-110 0 -165 31q-64 37 -96 135q-36 -120 -125 -150q-47 -16 -204 -16v178l148 -1q98 5 144 38q26 19 50 63q29 54 43 68q16 -20 31 -74q14 -48 41 -66 q42 -28 144 -28q117 0 174 57q44 44 84 167q9 28 23 28q17 0 17 -32q0 -20 -7 -60.5t-7 -60.5q0 -41 91 -77q78 -31 130 -31q100 0 100 50q0 77 -66 170l72 121q29 -52 48 -118q6 -59 25 -175q6 -22 31 -32q17 -7 190 -7v-178z" />
<glyph unicode="&#x634;" horiz-adv-x="1939" arabic-form="final" d="M1962 0h-69q-105 0 -175 84q-42 -84 -110 -84q-84 0 -164 32q-94 38 -127 102q-29 -54 -87 -93q-61 -41 -120 -41q-77 0 -153 63q-18 -192 -170 -310q-143 -111 -340 -111q-116 0 -188 54q-81 60 -81 173q0 62 37 175q42 127 84 144l7 -12q-4 -21 -29 -99 q-19 -59 -19 -103q0 -154 208 -154q281 0 419 184q23 31 23 51q0 28 -32 90q-29 57 -53 84l90 127q63 -178 168 -178q111 0 163 64q13 16 50 107q33 81 42 81q17 0 17 -32q0 -20 -6.5 -60.5t-6.5 -60.5q0 -41 90 -77q78 -31 129 -31q100 0 100 50q0 75 -64 170l71 121 q30 -52 49 -118q6 -60 25 -175q6 -22 31 -32q17 -7 191 -7v-178zM1525 754l-62 -115l-147 89l67 112zM1325 936l-61 -114l-126 75l67 113zM1242 716l-62 -114l-147 89l67 112z" />
<glyph unicode="&#x634;" horiz-adv-x="1244" arabic-form="initial" d="M1243 223q0 -219 -132 -219q-216 0 -280 122q-32 -58 -119 -94q-77 -32 -152 -32q-110 0 -165 31q-64 37 -96 135q-36 -120 -125 -150q-47 -16 -204 -16v178l148 -1q98 5 144 38q26 19 50 63q29 54 43 68q16 -20 31 -74q14 -48 41 -66q42 -28 144 -28q124 0 183 61 q17 18 55 105q34 79 42 79q17 0 17 -31q0 -20 -7 -60.5t-7 -61.5q0 -41 86 -71q71 -25 124 -25q100 0 100 49q0 77 -66 170l72 121q73 -127 73 -291zM1038 754l-61 -115l-148 89l67 112zM838 936l-61 -114l-126 75l67 113zM755 716l-62 -114l-147 89l67 112z" />
<glyph unicode="&#x634;" horiz-adv-x="1454" arabic-form="medial" d="M1476 0h-67q-109 0 -176 84q-42 -84 -110 -84q-84 0 -164 32q-92 37 -127 101q-32 -59 -119 -98q-78 -35 -153 -35q-110 0 -165 31q-64 37 -96 135q-36 -120 -125 -150q-47 -16 -204 -16v178l148 -1q98 5 144 38q26 19 50 63q29 54 43 68q16 -20 31 -74q14 -48 41 -66 q42 -28 144 -28q117 0 174 57q44 44 84 167q9 28 23 28q17 0 17 -32q0 -20 -7 -60.5t-7 -60.5q0 -41 91 -77q78 -31 130 -31q100 0 100 50q0 77 -66 170l72 121q29 -52 48 -118q6 -59 25 -175q6 -22 31 -32q17 -7 190 -7v-178zM1038 754l-61 -115l-148 89l67 112zM838 936 l-61 -114l-126 75l67 113zM755 716l-62 -114l-147 89l67 112z" />
<glyph unicode="&#x635;" horiz-adv-x="2136" arabic-form="final" d="M2167 0h-93q-136 0 -192 140q-138 -140 -385 -140h-347q-97 0 -151 36q0 -233 -141 -372t-374 -139q-137 0 -218 68q-88 73 -88 207q0 60 35 187q39 142 75 158l5 -10q-2 -15 -21 -103q-13 -60 -13 -107q0 -113 80 -171q70 -51 187 -51q109 0 239 40q169 52 169 134 q0 50 -46 145q-40 82 -80 134l90 129q45 -66 82 -90q43 -27 118 -27q100 82 303 242q218 166 329 166q80 0 150 -98q64 -90 64 -174q0 -42 -21 -102q55 -24 244 -24v-178zM1864 264q0 54 -89 109q-81 50 -143 50q-92 0 -229 -98q-70 -53 -210 -158q302 0 370 4 q301 18 301 93z" />
<glyph unicode="&#x635;" horiz-adv-x="1426" arabic-form="initial" d="M1426 293q0 -125 -137 -214q-122 -79 -255 -79h-474q-108 0 -164 32q-65 37 -97 134q-36 -120 -125 -150q-47 -16 -204 -16v178l149 -1q97 5 143 38q26 19 50 63q29 54 43 68q14 -18 32 -75q16 -51 46 -72q44 -31 147 -31l303 242q227 166 329 166q82 0 151 -103 q63 -94 63 -180zM1346 264q0 55 -89 109q-82 50 -143 50q-91 0 -228 -98q-70 -53 -210 -158q304 0 369 4q301 19 301 93z" />
<glyph unicode="&#x635;" horiz-adv-x="1684" arabic-form="medial" d="M1715 0h-104q-134 0 -191 140q-137 -140 -386 -140h-474q-108 0 -164 32q-65 37 -97 134q-36 -120 -125 -150q-47 -16 -204 -16v178l148 -1q99 5 144 38q26 19 50 63q29 53 43 68q14 -17 31 -74q15 -51 46 -72q46 -32 148 -32l333 241q251 167 355 167q81 0 150 -97 q64 -90 64 -175q0 -47 -21 -102q55 -24 254 -24v-178zM1402 275q0 55 -90 104q-80 44 -142 44q-94 0 -257 -97q-49 -29 -237 -159q726 0 726 108z" />
<glyph unicode="&#x636;" horiz-adv-x="2141" arabic-form="final" d="M2167 0h-93q-136 0 -192 140q-138 -140 -385 -140h-347q-97 0 -151 36q0 -233 -141 -372t-374 -139q-137 0 -218 68q-88 73 -88 207q0 60 35 187q39 142 75 158l5 -10q-2 -15 -21 -103q-13 -60 -13 -107q0 -113 80 -171q70 -51 187 -51q109 0 239 40q169 52 169 134 q0 50 -46 145q-40 82 -80 134l90 129q45 -66 82 -90q43 -27 118 -27q100 82 303 242q218 166 329 166q80 0 150 -98q64 -90 64 -174q0 -42 -21 -102q55 -24 244 -24v-178zM1864 264q0 54 -89 109q-81 50 -143 50q-92 0 -229 -98q-70 -53 -210 -158q302 0 370 4 q301 18 301 93zM1597 918l-63 -117l-153 94l67 115z" />
<glyph unicode="&#x636;" horiz-adv-x="1430" arabic-form="initial" d="M1426 293q0 -125 -137 -214q-122 -79 -255 -79h-474q-108 0 -164 32q-65 37 -97 134q-36 -120 -125 -150q-47 -16 -204 -16v178l149 -1q97 5 143 38q26 19 50 63q29 54 43 68q14 -18 32 -75q16 -51 46 -72q44 -31 147 -31l303 242q227 166 329 166q82 0 151 -103 q63 -94 63 -180zM1346 264q0 55 -89 109q-82 50 -143 50q-91 0 -228 -98q-70 -53 -210 -158q304 0 369 4q301 19 301 93zM1152 918l-62 -117l-154 94l68 115z" />
<glyph unicode="&#x636;" horiz-adv-x="1689" arabic-form="medial" d="M1715 0h-104q-134 0 -191 140q-137 -140 -386 -140h-474q-108 0 -164 32q-65 37 -97 134q-36 -120 -125 -150q-47 -16 -204 -16v178l148 -1q99 5 144 38q26 19 50 63q29 53 43 68q14 -17 31 -74q15 -51 46 -72q46 -32 148 -32l333 241q251 167 355 167q81 0 150 -97 q64 -90 64 -175q0 -47 -21 -102q55 -24 254 -24v-178zM1402 275q0 55 -90 104q-80 44 -142 44q-94 0 -257 -97q-49 -29 -237 -159q726 0 726 108zM1213 918l-63 -117l-153 94l68 115z" />
<glyph unicode="&#x637;" horiz-adv-x="1484" arabic-form="final" d="M1514 0h-96q-135 0 -192 140q-137 -140 -385 -140h-524q-61 0 -111 62q-32 41 -43 93q8 12 235 13q23 13 99 71q-25 236 -89 747l139 146q22 -272 22 -575q0 -172 -21 -279q394 298 527 298q79 0 149 -98q65 -91 65 -174q0 -42 -21 -102q54 -24 246 -24v-178zM1209 275 q0 55 -90 104q-80 44 -142 44q-93 0 -252 -97q-15 -9 -232 -159q716 0 716 108z" />
<glyph unicode="&#x637;" horiz-adv-x="1033" arabic-form="initial" d="M1033 293q0 -126 -137 -214q-123 -79 -255 -79h-671v178h172q40 20 99 67q-29 262 -88 741l139 146q21 -273 21 -575q0 -172 -20 -279q393 298 526 298q81 0 150 -103q64 -95 64 -180zM953 275q0 55 -90 104q-80 44 -142 44q-93 0 -252 -97q-15 -9 -232 -159 q716 0 716 108z" />
<glyph unicode="&#x637;" horiz-adv-x="1228" arabic-form="medial" d="M1258 0h-95q-136 0 -192 140q-138 -140 -385 -140h-616v178h172q40 20 99 67q-29 263 -88 741l139 146q21 -272 21 -575q0 -172 -20 -279q393 298 526 298q80 0 150 -98q64 -90 64 -174q0 -42 -21 -102q55 -24 246 -24v-178zM953 275q0 55 -90 104q-80 44 -142 44 q-93 0 -252 -97q-15 -9 -232 -159q716 0 716 108z" />
<glyph unicode="&#x638;" horiz-adv-x="1495" arabic-form="final" d="M1514 0h-96q-135 0 -192 140q-137 -140 -385 -140h-524q-61 0 -111 62q-32 41 -43 93q8 12 235 13q23 13 99 71q-25 236 -89 747l139 146q22 -272 22 -575q0 -172 -21 -279q394 298 527 298q79 0 149 -98q65 -91 65 -174q0 -42 -21 -102q54 -24 246 -24v-178zM1209 275 q0 55 -90 104q-80 44 -142 44q-93 0 -252 -97q-15 -9 -232 -159q716 0 716 108zM1027 918l-62 -117l-154 94l68 115z" />
<glyph unicode="&#x638;" horiz-adv-x="1042" arabic-form="initial" d="M1033 293q0 -126 -137 -214q-123 -79 -255 -79h-671v178h172q40 20 99 67q-29 262 -88 741l139 146q21 -273 21 -575q0 -172 -20 -279q393 298 526 298q81 0 150 -103q64 -95 64 -180zM953 275q0 55 -90 104q-80 44 -142 44q-93 0 -252 -97q-15 -9 -232 -159 q716 0 716 108zM779 918l-63 -117l-153 94l67 115z" />
<glyph unicode="&#x638;" horiz-adv-x="1236" arabic-form="medial" d="M1258 0h-95q-136 0 -192 140q-138 -140 -385 -140h-616v178h172q40 20 99 67q-29 263 -88 741l139 146q21 -272 21 -575q0 -172 -20 -279q393 298 526 298q80 0 150 -98q64 -90 64 -174q0 -42 -21 -102q55 -24 246 -24v-178zM953 275q0 55 -90 104q-80 44 -142 44 q-93 0 -252 -97q-15 -9 -232 -159q716 0 716 108zM779 918l-63 -117l-153 94l67 115z" />
<glyph unicode="&#x639;" horiz-adv-x="879" arabic-form="final" d="M1063 -634q-106 -125 -166 -156q-66 -34 -223 -34q-496 0 -496 417q0 180 86 353q82 163 223 288q-48 92 -152 92l-14 6q-1 54 52 144q69 47 197 47q166 0 166 -135q0 -72 -88 -177q42 -33 261 -33v-178h-61q-192 0 -279 130q-296 -236 -296 -439q0 -188 153 -280 q125 -74 326 -74q116 0 311 29z" />
<glyph unicode="&#x639;" horiz-adv-x="833" arabic-form="initial" d="M832 220l-45 -155q-222 -65 -482 -65h-335v178h277q-73 118 -73 195q0 103 72 200q78 105 176 105q66 0 150 -39q92 -43 116 -96l-10 -7q-16 3 -76 20q-46 13 -79 13q-69 0 -156 -51q-97 -57 -97 -120q0 -79 100 -152q94 -68 178 -68q125 0 284 42z" />
<glyph unicode="&#x639;" horiz-adv-x="806" arabic-form="medial" d="M836 0h-113q-192 0 -286 135q-151 -135 -377 -135h-90v178q366 0 409 34q-19 50 -64.5 81t-97.5 26l-10 7q18 92 50 143q77 49 199 49q166 0 166 -136q0 -71 -96 -167q53 -37 154 -37h156v-178z" />
<glyph unicode="&#x63a;" horiz-adv-x="873" arabic-form="final" d="M1063 -634q-106 -125 -166 -156q-66 -34 -223 -34q-496 0 -496 417q0 180 86 353q82 163 223 288q-48 92 -152 92l-14 6q-1 54 52 144q69 47 197 47q166 0 166 -135q0 -72 -88 -177q42 -33 261 -33v-178h-61q-192 0 -279 130q-296 -236 -296 -439q0 -188 153 -280 q125 -74 326 -74q116 0 311 29zM627 918l-62 -117l-154 94l68 115z" />
<glyph unicode="&#x63a;" horiz-adv-x="832" arabic-form="initial" d="M832 220l-45 -155q-222 -65 -482 -65h-335v178h277q-73 118 -73 195q0 103 72 200q78 105 176 105q66 0 150 -39q92 -43 116 -96l-10 -7q-16 3 -76 20q-46 13 -79 13q-69 0 -156 -51q-97 -57 -97 -120q0 -79 100 -152q94 -68 178 -68q125 0 284 42zM476 918l-63 -117 l-153 94l67 115z" />
<glyph unicode="&#x63a;" horiz-adv-x="800" arabic-form="medial" d="M836 0h-113q-192 0 -286 135q-151 -135 -377 -135h-90v178q366 0 409 34q-19 50 -64.5 81t-97.5 26l-10 7q18 92 50 143q77 49 199 49q166 0 166 -136q0 -71 -96 -167q53 -37 154 -37h156v-178zM530 918l-62 -117l-154 94l68 115z" />
<glyph unicode="&#x641;" horiz-adv-x="1649" arabic-form="final" d="M1680 0h-61q-80 0 -144 101q-114 -71 -406 -107q-218 -27 -432 -27q-203 0 -298 34q-161 58 -161 221q0 79 46 190q53 127 115 145l8 -11q-4 -25 -33 -89q-26 -57 -26 -94q0 -150 156 -196q78 -23 280 -23q260 0 484 36q0 5 -52 84t-52 145q0 78 55 169q61 101 133 101 q109 0 172 -168q49 -131 49 -284q0 -28 -2 -49h169v-178zM1442 168q3 19 3 42q0 90 -46 180q-54 106 -137 106q-37 0 -62 -36q-23 -32 -23 -71t113 -117zM1206 909l-69 -129l-168 104l73 126z" />
<glyph unicode="&#x641;" horiz-adv-x="628" arabic-form="initial" d="M628 263q0 -91 -47 -170q-55 -93 -140 -93h-471v178h359q-9 29 -65 104q-46 62 -46 116q0 70 59 169q65 109 127 109q87 0 161 -167q63 -143 63 -246zM537 169q6 24 6 55q0 90 -39 168q-48 96 -128 96q-34 0 -62.5 -32.5t-28.5 -67.5q0 -57 101 -123q50 -32 151 -96z M340 909l-68 -129l-169 104l74 126z" />
<glyph unicode="&#x641;" horiz-adv-x="811" arabic-form="medial" d="M841 0h-135q-74 0 -147 103q-63 -60 -79 -71q-46 -32 -100 -32h-410v178h301q-1 6 -51.5 86t-50.5 145q0 78 55 169q61 101 133 101q104 0 169 -165q53 -134 53 -281q0 -32 -3 -55h265v-178zM507 168q3 19 3 41q0 94 -45 182q-54 105 -139 105q-37 0 -62 -36 q-23 -32 -23 -71t113 -117q51 -35 153 -104zM340 909l-68 -129l-169 104l74 126z" />
<glyph unicode="&#x642;" horiz-adv-x="1188" arabic-form="final" d="M1218 0h-192q0 -215 -169 -337q-149 -107 -373 -107q-136 0 -218 68q-88 72 -88 206q0 60 35 187q39 142 75 159l5 -10q-3 -26 -20 -104q-14 -63 -14 -106q0 -113 80 -171q71 -52 187 -52q132 0 269 52q177 67 177 177q0 18 -5 38q-19 0 -57 -1t-57 -1q-112 0 -167 29 q-77 41 -77 147q0 97 64 207q73 125 161 125q83 0 138 -128q39 -91 52 -200h194v-178zM929 178q0 58 -43 116q-46 64 -101 64q-42 0 -78 -45.5t-36 -88.5q0 -46 258 -46zM1021 915l-68 -126l-161 97l73 124zM710 873l-69 -126l-160 98l72 124z" />
<glyph unicode="&#x642;" horiz-adv-x="628" arabic-form="initial" d="M628 263q0 -91 -47 -170q-55 -93 -140 -93h-471v178h359q-9 29 -65 104q-46 62 -46 116q0 70 59 169q65 109 127 109q87 0 161 -167q63 -143 63 -246zM537 169q6 24 6 55q0 90 -39 168q-48 96 -128 96q-34 0 -62.5 -32.5t-28.5 -67.5q0 -57 101 -123q50 -32 151 -96z M623 956l-68 -126l-161 97l73 124zM312 914l-69 -125l-160 98l73 123z" />
<glyph unicode="&#x642;" horiz-adv-x="836" arabic-form="medial" d="M867 0h-128q-74 0 -147 103q-62 -59 -79 -71q-46 -32 -100 -32h-443v178h334q-1 6 -51.5 86t-50.5 145q0 78 55 169q61 101 133 101q103 0 169 -165q54 -136 54 -281q0 -32 -4 -55h258v-178zM540 168q3 19 3 41q0 94 -45 182q-54 105 -138 105q-37 0 -62 -36 q-23 -32 -23 -71t113 -117zM603 956l-68 -126l-161 97l72 124zM292 914l-69 -125l-160 98l72 123z" />
<glyph unicode="&#x643;" horiz-adv-x="1680" arabic-form="final" d="M1710 0h-97q-121 0 -189 130q-146 -163 -787 -163q-203 0 -298 34q-161 57 -161 221q0 78 46 189q53 128 115 146l8 -11q-3 -28 -32 -90q-27 -57 -27 -93q0 -150 156 -196q78 -23 280 -23q118 0 338 20q262 24 307 53q24 16 24 44q0 106 -213 233q-156 93 -310 142v117 q35 82 287 223q211 118 347 164l-60 -178q-304 -86 -425 -210q460 -211 460 -474q0 -55 -18 -92q33 -8 196 -8h53v-178z" />
<glyph unicode="&#x643;" horiz-adv-x="664" arabic-form="initial" d="M689 1140l-60 -178q-294 -77 -426 -210q461 -213 461 -474q0 -278 -465 -278h-221v178q-47 0 59.5 -2.5t140.5 -2.5q399 0 399 87q0 107 -212 234q-153 91 -310 142v117q35 83 286 223q207 116 348 164z" />
<glyph unicode="&#x643;" horiz-adv-x="863" arabic-form="medial" d="M893 0h-95q-118 0 -186 124q-102 -124 -413 -124h-229v178h200q181 0 227 4q180 16 180 78q0 107 -213 234q-156 93 -309 142v117q34 82 287 223q212 118 347 164l-60 -178q-294 -77 -426 -210q461 -213 461 -474q0 -48 -17 -93q42 -7 195 -7h51v-178z" />
<glyph unicode="&#x644;" horiz-adv-x="1189" arabic-form="final" d="M1219 0h-64q-76 0 -165 57q0 -215 -147 -350q-142 -130 -359 -130q-306 0 -306 308q0 66 35 189q40 139 79 160l5 -12q-2 -33 -21 -106q-17 -67 -17 -106q0 -122 72 -188.5t195 -66.5q120 0 237 47q149 60 149 160q0 82 -17 210q-10 70 -28 210l-70 658l136 164 q0 -176 25 -513q26 -351 28 -513h233v-178z" />
<glyph unicode="&#x644;" horiz-adv-x="413" arabic-form="initial" d="M413 259q0 -136 -36 -190q-46 -69 -175 -69h-232v178h232q62 0 86 11q38 17 38 70q0 47 -13 130q-8 44 -21 131l-70 522l137 166q0 -158 27 -474t27 -475z" />
<glyph unicode="&#x644;" horiz-adv-x="622" arabic-form="medial" d="M650 0h-77q-63 0 -112 34q-5 4 -88 78q-75 -112 -260 -112h-143v178q178 0 202 2q167 14 167 76q0 22 -36 257l-81 529l137 166l42 -465q24 -272 24 -466q0 -6 -7 -75q65 -24 232 -24v-178z" />
<glyph unicode="&#x645;" horiz-adv-x="1028" arabic-form="final" d="M1060 0h-160q-65 0 -130 57q-23 -43 -37 -65q-22 5 -112 25q-71 16 -113 16q-89 0 -172 -26q-115 -36 -115 -102q0 -6 31 -100q92 -278 92 -478l-31 -91q-9 77 -74 339q-61 246 -61 271q0 59 49 154q57 110 129 156t194 46q44 0 109 -16q-100 132 -203 132q-46 0 -76 -18 q-10 -7 -61 -48l-2 7q8 80 56 140q54 68 130 68q84 0 203 -95q123 -99 123 -180q29 -13 74 -17q32 -3 81 0q57 3 76 3v-178z" />
<glyph unicode="&#x645;" horiz-adv-x="755" arabic-form="initial" d="M755 189q0 -66 -37 -129q-43 -73 -104 -73q-307 0 -360 155q-70 -142 -188 -142h-96v178q150 0 198 20q60 25 189 184q114 140 184 140q96 0 160 -123q54 -103 54 -210zM686 214q0 56 -55.5 108.5t-111.5 52.5q-47 0 -94 -37q-50 -38 -50 -84t83 -76q66 -24 123 -24 q105 0 105 60z" />
<glyph unicode="&#x645;" horiz-adv-x="938" arabic-form="medial" d="M969 0h-62q-71 0 -164 67q-50 -51 -68 -61q-32 -18 -94 -18q-106 0 -192 32q-112 42 -133 125q-50 -99 -114 -126q-44 -19 -172 -19v178q150 0 198 20q60 25 189 184q114 140 184 140q165 0 227 -344h201v-178zM686 214q0 56 -55.5 108.5t-111.5 52.5q-47 0 -94 -37 q-50 -38 -50 -84t83 -76q66 -24 123 -24q105 0 105 60z" />
<glyph unicode="&#x646;" horiz-adv-x="1217" arabic-form="final" d="M679 558l-51 -128l-176 79l59 124zM1247 0h-97q-97 0 -151 36q0 -233 -141 -372t-374 -139q-137 0 -218 68q-88 73 -88 207q0 67 35 189q39 138 79 161l5 -12q-2 -33 -21 -106q-17 -68 -17 -107q0 -113 80 -171q70 -51 187 -51q111 0 240 40q168 52 168 136q0 52 -46 150 q-40 85 -80 138l90 129q45 -68 91 -94.5t124 -26.5q22 0 67 1.5t67 1.5v-178z" />
<glyph unicode="&#x646;" horiz-adv-x="436" arabic-form="initial" d="M438 274q0 -141 -103 -212q-89 -62 -235 -62h-130v178q182 0 216 3q166 15 166 76q0 43 -98 164l90 141q94 -159 94 -288zM340 918l-62 -117l-154 94l68 115z" />
<glyph unicode="&#x646;" horiz-adv-x="622" arabic-form="medial" d="M665 0h-102q-56 0 -105 35q-2 2 -84 75q-88 -110 -290 -110h-114v178q185 0 208 2q161 14 161 77q0 43 -99 164l91 142q94 -155 94 -289q0 -44 -7 -71q57 -25 247 -25v-178zM340 918l-62 -117l-154 94l68 115z" />
<glyph unicode="&#x647;" horiz-adv-x="933" arabic-form="final" d="M964 0h-253q-91 0 -132 127q-16 49 -35 203q-36 -75 -57 -102q-43 -55 -97 -55q-67 0 -132 29q-80 36 -80 93q0 16 24 84q32 91 118 152q56 36 166 109q13 9 6 30l85 82q19 -70 30 -276q10 -192 30 -241q23 -57 88 -57h239v-178zM531 389q0 27 -25 173 q-196 -109 -199 -167q7 -24 57 -43q43 -16 75 -16q92 0 92 53z" />
<glyph unicode="&#x647;" horiz-adv-x="876" arabic-form="initial" d="M876 201q0 -44 -24 -116q-29 -85 -60 -85q-83 0 -192 26q-112 27 -181 65q-143 -91 -255 -91h-194v178h284q-28 56 -28 116q0 160 175 290q-29 22 -70 47l60 143q157 -83 307 -241q178 -188 178 -332zM810 197q0 39 -69 115q-55 60 -106 97q-34 -130 -89 -212 q103 -47 196 -47q68 0 68 47zM565 357q0 50 -21 98q-26 60 -69 60q-53 0 -116 -71.5t-63 -126.5q0 -21 55 -51q52 -27 78 -27q47 0 91.5 36t44.5 82z" />
<glyph unicode="&#x647;" horiz-adv-x="889" arabic-form="medial" d="M922 0h-258q64 -87 64 -210q0 -76 -34 -155q-42 -97 -107 -97q-39 0 -106 35q-242 126 -295 447q-74 -20 -216 -20v178h234q41 119 123 282q111 222 169 222q39 0 79 -121q35 -105 35 -159q0 -67 -25 -131q-6 -14 -57 -121q164 28 330 28h64v-178zM540 322q0 43 -24 101 q-28 69 -63 69q-41 0 -110 -132q-65 -125 -65 -178q76 0 159 34q103 42 103 106zM660 -257q0 92 -117 184q-111 87 -206 87q-35 0 -57 -27q15 -90 126 -195q114 -109 202 -109q52 0 52 60z" />
<glyph unicode="&#x648;" horiz-adv-x="918" arabic-form="final" d="M948 0h-93q-108 0 -165 44q-20 -193 -104 -318q-103 -154 -280 -154q-60 0 -145 51q-73 44 -122 98q112 -30 170 -30q138 0 257 92q123 95 143 229q-149 0 -222 29q-114 45 -114 170q0 98 57 201q65 118 156 118q92 0 151 -136q42 -98 54 -216h257v-178zM617 179 q-18 65 -64 128q-56 77 -111 77q-29 0 -66 -43t-37 -72q0 -89 278 -90z" />
<glyph unicode="&#x649;" horiz-adv-x="1331" arabic-form="final" d="M1365 0h-268q162 -62 162 -138q0 -117 -292 -240q-259 -109 -400 -109q-178 0 -280 88q-109 93 -109 268q0 91 49 227q57 159 125 180l8 -10q-8 -27 -63 -145q-39 -84 -39 -162q0 -135 100 -206q87 -62 228 -62q92 0 288 43q233 51 233 103q0 27 -250 101q-70 21 -67 34 l31 125q10 40 251 64q171 17 293 17v-178z" />
<glyph unicode="&#x64a;" horiz-adv-x="1331" arabic-form="final" d="M1365 0h-268q162 -62 162 -138q0 -117 -292 -240q-259 -109 -400 -109q-178 0 -280 88q-109 93 -109 268q0 91 49 227q57 159 125 180l8 -10q-7 -24 -63 -144q-39 -84 -39 -163q0 -135 100 -206q87 -62 228 -62q92 0 288 43q233 51 233 103q0 27 -250 101q-70 21 -67 34 l31 125q10 40 251 64q171 17 293 17v-178z" />
<glyph unicode="&#x64a;" horiz-adv-x="544" arabic-form="initial" d="M438 274q0 -141 -103 -212q-89 -62 -235 -62h-130v178q182 0 216 3q166 15 166 76q0 43 -98 164l90 141q94 -159 94 -288zM484 -263l-61 -115l-148 89l67 112zM202 -301l-63 -114l-146 89l66 112z" />
<glyph unicode="&#x64a;" horiz-adv-x="630" arabic-form="medial" d="M665 0h-102q-56 0 -105 35q-2 2 -84 75q-88 -110 -290 -110h-114v178q185 0 208 2q161 14 161 77q0 43 -99 164l91 142q94 -155 94 -289q0 -44 -7 -71q57 -25 247 -25v-178zM514 -263l-61 -115l-148 89l67 112zM232 -301l-63 -114l-146 89l66 112z" />
<glyph unicode="&#xd;" horiz-adv-x="414" />
<glyph unicode=" "  horiz-adv-x="414" />
<glyph unicode="&#x09;" horiz-adv-x="414" />
<glyph unicode="&#xa0;" horiz-adv-x="414" />
<glyph unicode="!" horiz-adv-x="399" d="M331 611q0 -238 -49 -263q-23 21 -108 678q29 37 125 127q28 -109 32 -269v-273zM396 119l-97 -116l-128 106l94 117z" />
<glyph unicode="%" horiz-adv-x="1060" d="M340 1025l-96 -115l-128 105l93 118zM909 1220l-653 -1292h-96l654 1292h95zM951 122l-96 -116l-128 106l93 118z" />
<glyph unicode="(" horiz-adv-x="648" d="M644 -267l-79 -101q-403 314 -403 788q0 460 324 826l33 -22q-125 -146 -206 -354q-83 -213 -83 -400q0 -223 111.5 -421t302.5 -316z" />
<glyph unicode=")" horiz-adv-x="637" d="M637 462q0 -465 -324 -828l-33 23q126 146 207.5 355.5t81.5 398.5q0 224 -111 421.5t-303 314.5l79 101q189 -143 295 -346q108 -207 108 -440z" />
<glyph unicode="*" horiz-adv-x="1044" d="M714 580q19 72 54 134q49 87 100 87q30 0 50 -21t20 -51q0 -45 -90 -95q-68 -38 -134 -54zM682 843q0 -104 -73 -222q-68 121 -68 219q0 67 72 67q25 0 47 -19.5t22 -44.5zM1044 471q0 72 -73 72q-95 0 -214 -66q118 -74 224 -74q26 0 44.5 21t18.5 47zM682 474 q0 -29 -21 -49.5t-50 -20.5q-70 0 -70 70q0 69 70 69q71 0 71 -69zM939 216q0 -29 -21.5 -49.5t-50.5 -20.5q-47 0 -97 90q-35 63 -55 135q73 -20 136 -55q88 -49 88 -100zM285 730q0 71 71 71q47 0 96 -89q37 -67 54 -134q-72 19 -134 53q-87 48 -87 99zM245 404 q-67 0 -67 72q0 25 19 46.5t44 21.5q108 0 223 -71q-118 -69 -219 -69zM681 109q0 -68 -72 -68q-26 0 -47.5 18.5t-21.5 44.5q0 108 73 222q68 -124 68 -217zM353 146q-68 0 -68 72q0 49 89 98q65 36 135 54q-18 -69 -56 -135q-51 -89 -100 -89z" />
<glyph unicode="+" horiz-adv-x="898" d="M807 306h-322v-323h-72v323h-320v71h320v321h72v-321h322v-71z" />
<glyph unicode="," horiz-adv-x="552" d="M186 145q0 66 43.5 114.5t109.5 48.5q102 0 155 -93q44 -76 44 -186q0 -102 -49.5 -205t-128.5 -169q-7 -6 -16 -6q-21 0 -21 24q0 -22 6 -22q15 0 63 113q69 163 69 205q0 48 -31 48q-18 0 -52.5 -9.5t-52.5 -9.5q-57 0 -98 45t-41 102z" />
<glyph unicode="-" horiz-adv-x="918" d="M837 306h-714v73h714v-73z" />
<glyph unicode="." horiz-adv-x="393" d="M393 104q0 -44 -31.5 -75.5t-75.5 -31.5q-46 0 -77 30.5t-31 76.5q0 45 31.5 76t76.5 31t76 -31t31 -76z" />
<glyph unicode="/" horiz-adv-x="604" d="M503 624l-306 -1108h-97l306 1108h97z" />
<glyph unicode="0" horiz-adv-x="1060" d="M719 310l-115 -156l-182 139l122 153z" />
<glyph unicode="&#x660;" horiz-adv-x="1060" d="M719 310l-115 -156l-182 139l122 153z" />
<glyph unicode="1" horiz-adv-x="1060" d="M682 17q0 -42 -17 -102q-21 -75 -51 -79q-12 35 -18 107q-7 87 -12 110q-73 356 -306 717l94 165q128 -184 217 -439q93 -269 93 -479z" />
<glyph unicode="&#x661;" horiz-adv-x="1060" d="M682 17q0 -42 -17 -102q-21 -75 -51 -79q-12 35 -18 107q-7 87 -12 110q-73 356 -306 717l94 165q128 -184 217 -439q93 -269 93 -479z" />
<glyph unicode="2" horiz-adv-x="1060" d="M832 910q0 -125 -65 -217q-73 -104 -193 -104q-36 0 -66 8q131 -343 131 -580q0 -41 -17 -102q-21 -76 -50 -79q-12 35 -18 107q-7 79 -13 110q-87 420 -336 738l67 142q154 -188 305 -188q82 0 139 47q35 29 69 89q27 48 36 49q11 -5 11 -20z" />
<glyph unicode="&#x662;" horiz-adv-x="1060" d="M832 910q0 -125 -65 -217q-73 -104 -193 -104q-36 0 -66 8q131 -343 131 -580q0 -41 -17 -102q-21 -76 -50 -79q-12 35 -18 107q-7 79 -13 110q-87 420 -336 738l67 142q154 -188 305 -188q82 0 139 47q35 29 69 89q27 48 36 49q11 -5 11 -20z" />
<glyph unicode="3" horiz-adv-x="1060" d="M958 903q0 -79 -46 -164q-54 -99 -125 -99q-76 0 -138 92q-11 -61 -51 -101q-43 -43 -103 -43q-30 0 -59 10q132 -346 132 -581q0 -43 -17 -102q-22 -76 -51 -79q-12 35 -18 107q-7 87 -12 110q-87 418 -337 738l67 142q158 -188 305 -188q115 0 145 174q4 25 18 25 t24 -40q14 -57 25 -76q24 -40 74 -40q59 0 86 44l52 86l14 7q15 1 15 -22z" />
<glyph unicode="&#x663;" horiz-adv-x="1060" d="M958 903q0 -79 -46 -164q-54 -99 -125 -99q-76 0 -138 92q-11 -61 -51 -101q-43 -43 -103 -43q-30 0 -59 10q132 -346 132 -581q0 -43 -17 -102q-22 -76 -51 -79q-12 35 -18 107q-7 87 -12 110q-87 418 -337 738l67 142q158 -188 305 -188q115 0 145 174q4 25 18 25 t24 -40q14 -57 25 -76q24 -40 74 -40q59 0 86 44l52 86l14 7q15 1 15 -22z" />
<glyph unicode="4" horiz-adv-x="1060" d="M897 763q0 -87 -103 -145q-88 -50 -181 -50q-74 0 -147 34q132 -347 132 -585q0 -42 -17 -103q-21 -75 -51 -78q-12 35 -18 107q-7 87 -12 110q-87 419 -336 738l67 144q35 -27 94.5 -92t94.5 -92q-3 25 -3 47q0 108 62 182q66 79 172 79q47 0 92 -21q54 -24 66 -63 l-4 -11l-13 -1q-43 12 -89 12q-197 0 -197 -150q0 -128 179 -128q52 0 108 32q76 44 93 50q11 -5 11 -16z" />
<glyph unicode="&#x664;" horiz-adv-x="1060" d="M897 763q0 -87 -103 -145q-88 -50 -181 -50q-74 0 -147 34q132 -347 132 -585q0 -42 -17 -103q-21 -75 -51 -78q-12 35 -18 107q-7 87 -12 110q-87 419 -336 738l67 144q35 -27 94.5 -92t94.5 -92q-3 25 -3 47q0 108 62 182q66 79 172 79q47 0 92 -21q54 -24 66 -63 l-4 -11l-13 -1q-43 12 -89 12q-197 0 -197 -150q0 -128 179 -128q52 0 108 32q76 44 93 50q11 -5 11 -16z" />
<glyph unicode="5" horiz-adv-x="1060" d="M891 122q0 -95 -50 -179q-59 -99 -146 -99q-108 0 -176 97q-66 -97 -177 -97q-87 0 -137 72q-43 64 -43 155q0 139 86 363q72 189 165 341l-38 45l96 155q420 -480 420 -752v-101zM835 132q0 120 -146 318q-50 68 -236 280q-217 -408 -217 -568t126 -160q116 0 190 106 q70 -106 155 -106q56 0 92 37t36 93z" />
<glyph unicode="&#x665;" horiz-adv-x="1060" d="M891 122q0 -95 -50 -179q-59 -99 -146 -99q-108 0 -176 97q-66 -97 -177 -97q-87 0 -137 72q-43 64 -43 155q0 139 86 363q72 189 165 341l-38 45l96 155q420 -480 420 -752v-101zM835 132q0 120 -146 318q-50 68 -236 280q-217 -408 -217 -568t126 -160q116 0 190 106 q70 -106 155 -106q56 0 92 37t36 93z" />
<glyph unicode="6" horiz-adv-x="1060" d="M916 665l-67 -190q-285 -95 -474 -370q-56 -91 -168 -272q-10 5 -10 21q0 123 97 300q87 159 190 256q-248 26 -248 214q0 106 122 236.5t227 130.5q60 0 120 -40q65 -42 76 -98l-4 -13l-14 -1q-28 -2 -89 12q-64 15 -92 15q-87 0 -159 -48q-82 -53 -82 -136 q0 -70 96 -104q69 -24 158 -24q64 0 165 54q110 59 151 66z" />
<glyph unicode="&#x666;" horiz-adv-x="1060" d="M916 665l-67 -190q-285 -95 -474 -370q-56 -91 -168 -272q-10 5 -10 21q0 123 97 300q87 159 190 256q-248 26 -248 214q0 106 122 236.5t227 130.5q60 0 120 -40q65 -42 76 -98l-4 -13l-14 -1q-28 -2 -89 12q-64 15 -92 15q-87 0 -159 -48q-82 -53 -82 -136 q0 -70 96 -104q69 -24 158 -24q64 0 165 54q110 59 151 66z" />
<glyph unicode="7" horiz-adv-x="1060" d="M984 801q-189 -229 -343 -787q-51 -185 -72 -185q-16 0 -41 92q-10 38 -30 113q-53 187 -166 409q-120 236 -240 367q36 63 88 141q3 -2 9 -8q117 -130 236 -415q108 -259 147 -460q22 160 139 456q125 317 219 416l7 5q8 -22 47 -144z" />
<glyph unicode="&#x667;" horiz-adv-x="1060" d="M984 801q-189 -229 -343 -787q-51 -185 -72 -185q-16 0 -41 92q-10 38 -30 113q-53 187 -166 409q-120 236 -240 367q36 63 88 141q3 -2 9 -8q117 -130 236 -415q108 -259 147 -460q22 160 139 456q125 317 219 416l7 5q8 -22 47 -144z" />
<glyph unicode="8" horiz-adv-x="1060" d="M973 -22q-36 -64 -88 -142q-4 3 -9 8q-117 128 -237 416q-108 259 -146 460q-21 -149 -144 -464q-134 -342 -222 -416q-1 4 -46 147q181 221 335 764l30 111q28 96 50 96q16 0 41 -91l30 -114q53 -188 165 -408q120 -235 241 -367z" />
<glyph unicode="&#x668;" horiz-adv-x="1060" d="M973 -22q-36 -64 -88 -142q-4 3 -9 8q-117 128 -237 416q-108 259 -146 460q-21 -149 -144 -464q-134 -342 -222 -416q-1 4 -46 147q181 221 335 764l30 111q28 96 50 96q16 0 41 -91l30 -114q53 -188 165 -408q120 -235 241 -367z" />
<glyph unicode="9" horiz-adv-x="1060" d="M871 14q-32 -83 -74 -178q-4 3 -17 21q-191 259 -248 707q-79 -156 -176 -156q-87 0 -141 66q-50 61 -50 150q0 92 57 195q65 118 148 118q100 0 153 -70q41 -54 82 -214q57 -224 86 -306q68 -193 180 -333zM511 646q-15 141 -119 141q-48 0 -101.5 -49t-53.5 -96 q0 -41 52 -66q43 -21 89 -21q36 0 77 30q37 27 56 61z" />
<glyph unicode="&#x669;" horiz-adv-x="1060" d="M871 14q-32 -83 -74 -178q-4 3 -17 21q-191 259 -248 707q-79 -156 -176 -156q-87 0 -141 66q-50 61 -50 150q0 92 57 195q65 118 148 118q100 0 153 -70q41 -54 82 -214q57 -224 86 -306q68 -193 180 -333zM511 646q-15 141 -119 141q-48 0 -101.5 -49t-53.5 -96 q0 -41 52 -66q43 -21 89 -21q36 0 77 30q37 27 56 61z" />
<glyph unicode=":" horiz-adv-x="443" d="M402 512l-96 -116l-128 106l93 117zM439 113l-97 -116l-128 106l94 118z" />
<glyph unicode="=" horiz-adv-x="928" d="M837 459h-720v83h720v-83zM837 142h-720v83h720v-83z" />
<glyph unicode="[" horiz-adv-x="609" d="M222 -447l1 1777h323v-86h-231l-2 -1604h233v-87h-324z" />
<glyph unicode="]" horiz-adv-x="609" d="M546 -447l-2 1777h-322v-86h231l1 -1604h-232v-87h324z" />
<glyph unicode="{" horiz-adv-x="743" d="M616 -521q-141 30 -223 137q-81 104 -81 250q0 66 22 177q18 90 18 112q0 92 -57 158t-148 78v37q205 52 205 220q0 45 -14 121q-23 125 -23 188q0 145 79 249q82 109 222 134v-39q-87 -13 -139.5 -77t-52.5 -152q0 -45 11 -113q26 -161 26 -211q0 -225 -245 -337 q242 -115 242 -350q0 -46 -23 -178q-14 -80 -14 -134q0 -181 195 -233v-37z" />
<glyph unicode="}" horiz-adv-x="743" d="M147 -521q141 30 223 137q81 104 81 250q0 66 -22 177q-18 90 -18 112q0 92 57 158t148 78v37q-205 52 -205 220q0 40 15 121q22 120 22 188q0 145 -79 249q-82 109 -222 134v-39q87 -13 139.5 -77t52.5 -152q0 -45 -11 -113q-26 -161 -26 -211q0 -225 245 -337 q-241 -115 -241 -350q0 -48 22 -178q14 -82 14 -134q0 -181 -195 -233v-37z" />
<glyph unicode="&#xab;" horiz-adv-x="687" d="M682 56q-4 -13 -17 -13q-76 0 -132 135q-46 111 -46 201q0 92 45 201q55 134 133 134q17 0 17 -13q0 77 -48.5 -98t-48.5 -224q0 -96 28 -161q22 -47 62 -142zM373 56q-5 -13 -17 -13q-76 0 -132 135q-46 111 -46 201q0 92 45 201q55 134 133 134q17 0 17 -13 q0 77 -48.5 -98t-48.5 -224q0 -96 28 -161q22 -47 62 -142z" />
<glyph unicode="&#xb7;" horiz-adv-x="414" d="M205 527q-79 0 -79 85q0 87 79 87q76 0 76 -87q0 -35 -21 -60t-55 -25z" />
<glyph unicode="&#x2d9;" horiz-adv-x="414" d="M205 527q-79 0 -79 85q0 87 79 87q76 0 76 -87q0 -35 -21 -60t-55 -25z" />
<glyph unicode="&#xbb;" horiz-adv-x="687" d="M685 379q0 -89 -47 -201q-57 -135 -132 -135q-12 0 -17 13q21 41 66 138q32 79 32 185q0 141 -90 303q-6 11 -8 20q5 12 18 12q75 0 131 -135q47 -113 47 -200zM376 379q0 -90 -46 -201q-56 -135 -132 -135q-17 0 -17 14q0 -77 48.5 97t48.5 225q0 84 -30 158 q-21 48 -60 145l-7 20q4 12 17 12q75 0 131 -134q47 -113 47 -201z" />
<glyph unicode="&#xd7;" horiz-adv-x="875" d="M764 66l-53 -51l-274 276l-280 -277l-50 51l277 277l-275 277l50 50l277 -276l274 277l52 -51l-274 -276z" />
<glyph unicode="&#xf7;" horiz-adv-x="1038" d="M906 333h-823v99h823v-99zM501 765q42 0 71.5 -29.5t29.5 -71.5q0 -41 -29 -70t-70 -29q-43 0 -72.5 28t-29.5 71q0 42 29 71.5t71 29.5zM501 184q41 0 71 -29t30 -70t-29 -69t-70 -28q-43 0 -72.5 27t-29.5 70q0 42 29 70.5t71 28.5z" />
<glyph unicode="&#x60c;" horiz-adv-x="408" d="M402 118q-40 -56 -105 -121q-64 58 -81 80q-38 49 -38 105q0 62 46 158q48 100 97 128l5 -9q-4 -25 -33 -85q-25 -51 -25 -90q0 -81 134 -166z" />
<glyph unicode="&#x61b;" horiz-adv-x="439" d="M400 516q-40 -56 -105 -121q-64 58 -81 80q-38 49 -38 105q0 62 46 157q47 100 97 129l5 -10q-4 -24 -33 -84q-25 -51 -25 -90q0 -81 134 -166zM439 113l-97 -116l-127 106l93 117z" />
<glyph unicode="&#x61f;" horiz-adv-x="739" d="M726 1100l-75 -142q-83 55 -153 55q-87 0 -156 -41q-82 -49 -82 -129q0 -95 77 -147q66 -44 166 -44q79 0 136 28q20 -72 20 -176q0 -45 -13 -100q-16 -67 -40 -88l-5 7q-8 92 -43 184q-40 -6 -74 -6q-135 0 -220.5 86t-85.5 221q0 160 110 261q107 98 269 98 q116 0 169 -67zM735 119l-96 -116l-128 106l93 117z" />
<glyph unicode="&#x621;" horiz-adv-x="664" d="M489 78q-127 -39 -219 -115l-49 12q12 35 77 77q-61 22 -61 93q0 56 37 102.5t91 46.5q39 0 74 -29l-37 -68q-27 17 -51 17q-57 0 -57 -46q0 -42 78 -42q34 0 78 14l75 24l3 -3q-2 -4 -39 -83z" />
<glyph unicode="&#x622;" horiz-adv-x="509" d="M283 1292q-105 0 -152 40q-18 -43 -30 -65q-22 -39 -45 -52l-2 10q0 40 20.5 107t43.5 95q89 -50 165 -50q96 0 141 22l105 51l6 -6q-21 -68 -102 -112q-73 -40 -150 -40zM386 236q0 -14 -29 -96q-27 -77 -38 -98q-31 334 -108 998l117 162q0 -161 29 -483t29 -483z" />
<glyph unicode="&#x623;" horiz-adv-x="418" d="M383 1328q-130 -38 -219 -116l-50 12q14 40 78 77q-62 22 -62 94q0 55 37 100q39 49 92 49q39 0 74 -30l-37 -68q-27 17 -51 17q-56 0 -56 -45q0 -43 77 -43q42 0 153 39l2 -3q-1 -5 -38 -83zM386 236q0 -14 -29 -96q-27 -77 -38 -98q-31 334 -108 998l117 162 q0 -161 29 -483t29 -483z" />
<glyph unicode="&#x624;" horiz-adv-x="714" d="M488 799q-130 -39 -219 -116l-50 12q14 40 78 77q-62 21 -62 94q0 55 37 100q39 49 92 49q39 0 74 -30l-37 -68q-27 17 -51 17q-56 0 -56 -45q0 -44 77 -44q39 0 153 40l2 -3q-1 -5 -38 -83zM714 157q0 -217 -90 -373q-109 -190 -310 -190q-61 0 -149 53q-78 47 -126 102 q115 -31 175 -31q143 0 265 94q126 97 147 235q-150 0 -228 31q-119 48 -119 176q0 101 60 207q68 121 161 121q108 0 168 -167q46 -127 46 -258zM634 220q-19 70 -64 132q-57 78 -114 78q-30 0 -69 -44t-39 -74q0 -89 286 -92z" />
<glyph unicode="&#x625;" horiz-adv-x="418" d="M354 -288q-130 -39 -220 -116l-49 12q13 40 78 77q-62 22 -62 94q0 55 36 100q39 49 92 49q39 0 75 -30l-37 -68q-27 17 -51 17q-56 0 -56 -45q0 -43 76 -43q39 0 79 13q25 9 75 26l2 -3q-1 -5 -38 -83zM386 236q0 -14 -29 -96q-27 -77 -38 -98q-31 334 -108 998l117 162 q0 -161 29 -483t29 -483z" />
<glyph unicode="&#x626;" horiz-adv-x="1482" d="M1482 613l-71 -134q-30 54 -101 54q-98 0 -219 -114q-99 -93 -157 -201q121 -34 247 -71q195 -57 195 -106q0 -166 -328 -328q-291 -144 -481 -144q-179 0 -281 86q-108 93 -108 269q0 91 49 227q58 160 125 180l8 -10q-8 -25 -63 -144q-39 -84 -39 -163q0 -134 100 -206 q88 -62 228 -62q135 0 308 46q189 50 284 123q26 20 26 33q0 21 -196.5 68t-196.5 74q0 161 192 384q197 229 356 229q120 0 123 -90zM450 534q-129 -38 -219 -116l-49 12q13 40 77 77q-61 22 -61 94q0 55 36 100q39 49 92 49q39 0 75 -30l-38 -68q-27 18 -50 18 q-57 0 -57 -46q0 -43 77 -43q40 0 154 39l2 -3q-1 -5 -39 -83z" />
<glyph unicode="&#x627;" horiz-adv-x="386" d="M386 236q0 -14 -29 -96q-27 -77 -38 -98q-31 334 -108 998l117 162q0 -161 29 -483t29 -483z" />
<glyph unicode="&#x628;" horiz-adv-x="1293" d="M1290 274q0 -212 -241 -278q-120 -33 -412 -33q-203 0 -298 34q-161 58 -161 221q0 78 46 189q52 126 114 145l9 -11q-4 -27 -39 -89q-31 -55 -31 -94q0 -149 162 -195q81 -23 285 -23q137 0 269 19q211 30 211 98q0 46 -100 164l92 142q94 -165 94 -289zM819 -264 l-63 -117l-153 94l68 115z" />
<glyph unicode="&#x62a;" horiz-adv-x="1293" d="M1290 274q0 -212 -241 -278q-120 -33 -412 -33q-204 0 -299 34q-161 57 -161 222q0 77 47 188q53 126 114 145l9 -11q-4 -27 -39 -89q-31 -56 -31 -94q0 -149 162 -195q81 -23 285 -23q139 0 270 19q210 30 210 98q0 47 -100 164l92 142q94 -165 94 -289zM992 747 l-62 -115l-147 89l66 112zM709 709l-63 -114l-146 89l67 112z" />
<glyph unicode="&#x62b;" horiz-adv-x="1293" d="M1290 274q0 -212 -241 -278q-120 -33 -412 -33q-203 0 -298 34q-161 58 -161 221q0 78 46 189q52 126 114 145l9 -11q-4 -27 -39 -89q-31 -55 -31 -94q0 -149 162 -195q81 -23 285 -23q137 0 269 19q211 30 211 98q0 46 -100 164l92 142q94 -165 94 -289zM992 747 l-62 -115l-147 89l66 112zM792 929l-62 -114l-125 75l67 113zM709 709l-63 -114l-146 89l67 112z" />
<glyph unicode="&#x62c;" horiz-adv-x="970" d="M1086 -637q-94 -118 -167 -154.5t-222 -36.5q-496 0 -496 418q0 172 89 352q90 184 227 283q-81 20 -140 20q-69 0 -110 -20q-60 -29 -79 -33l-8 11q3 70 83 133q77 61 149 61q78 0 232.5 -28t233.5 -28q88 0 195 19l6 -7q-3 -9 -106 -160q-110 14 -141 14 q-207 0 -374 -149q-173 -154 -173 -359q0 -189 158 -285q131 -80 333 -80q112 0 310 29zM807 -233l-63 -117l-153 93l68 116z" />
<glyph unicode="&#x62d;" horiz-adv-x="976" d="M1086 -637q-94 -118 -167 -154.5t-222 -36.5q-496 0 -496 418q0 172 89 352q90 184 227 283q-81 20 -140 20q-69 0 -110 -20q-60 -29 -79 -33l-8 11q3 70 83 133q77 61 149 61q78 0 232.5 -28t233.5 -28q88 0 195 19l6 -7q-3 -9 -106 -160q-110 14 -141 14 q-207 0 -374 -149q-173 -154 -173 -359q0 -189 158 -285q131 -80 333 -80q112 0 310 29z" />
<glyph unicode="&#x62e;" horiz-adv-x="980" d="M1086 -637q-94 -118 -167 -154.5t-222 -36.5q-496 0 -496 418q0 172 89 352q90 184 227 283q-81 20 -140 20q-69 0 -110 -20q-60 -29 -79 -33l-8 11q3 70 83 133q77 61 149 61q78 0 232.5 -28t233.5 -28q88 0 195 19l6 -7q-3 -9 -106 -160q-110 14 -141 14 q-207 0 -374 -149q-173 -154 -173 -359q0 -189 158 -285q131 -80 333 -80q112 0 310 29zM688 706l-63 -117l-153 94l67 115z" />
<glyph unicode="&#x62f;" horiz-adv-x="806" d="M806 147q0 -82 -31 -117q-37 -42 -187 -69q-116 -21 -208 -21q-98 0 -140 21q-62 31 -62 118q0 32 29 104q31 78 55 79l4 -8q-17 -76 -17 -72q0 -64 158 -64q71 0 176 17q142 23 142 60q0 61 -62 204q-54 125 -100 194l101 167q66 -98 107 -296q35 -169 35 -317z" />
<glyph unicode="&#x630;" horiz-adv-x="808" d="M806 147q0 -82 -31 -117q-37 -42 -187 -69q-116 -21 -208 -21q-98 0 -140 21q-62 31 -62 118q0 32 29 104q31 78 55 79l4 -8q-17 -76 -17 -72q0 -64 158 -64q71 0 176 17q142 23 142 60q0 61 -62 204q-54 125 -100 194l101 167q66 -98 107 -296q35 -169 35 -317zM627 918 l-62 -117l-154 94l68 115z" />
<glyph unicode="&#x631;" horiz-adv-x="631" d="M603 115q0 -150 -58 -286q-74 -174 -205 -174q-57 0 -168 51t-151 94l3 3q3 0 72 -15q42 -9 72 -9q140 0 254 103q109 99 138 239q-12 47 -76 139q-56 80 -100 127l90 141q76 -99 104 -194q25 -85 25 -219z" />
<glyph unicode="&#x632;" horiz-adv-x="631" d="M603 115q0 -150 -58 -286q-74 -174 -205 -174q-57 0 -168 51t-151 94l3 3q3 0 72 -15q42 -9 72 -9q140 0 254 103q109 99 138 239q-12 47 -76 139q-56 80 -100 127l90 141q76 -99 104 -194q25 -85 25 -219zM449 837l-62 -117l-154 94l68 115z" />
<glyph unicode="&#x633;" horiz-adv-x="1674" d="M1674 208q0 -219 -133 -219q-204 0 -268 122q-68 -122 -196 -122q-76 0 -153 63q-18 -191 -153 -302q-130 -108 -324 -108q-116 0 -188 54q-81 60 -81 173q0 62 37 175q42 127 84 144l7 -12q-4 -21 -29 -99q-19 -59 -19 -103q0 -154 208 -154q258 0 385 173q24 33 24 50 q0 27 -33 91q-30 58 -52 84l90 126q62 -177 167 -177q111 0 159 58q12 15 45 104q29 79 41 79q17 0 17 -32q0 -20 -6.5 -60.5t-6.5 -60.5q0 -42 80 -72q66 -25 117 -25q100 0 100 50q0 74 -65 170l72 121q74 -131 74 -291z" />
<glyph unicode="&#x634;" horiz-adv-x="1676" d="M1674 208q0 -219 -133 -219q-204 0 -268 122q-68 -122 -196 -122q-76 0 -153 63q-18 -191 -153 -302q-130 -108 -324 -108q-116 0 -188 54q-81 60 -81 173q0 62 37 175q42 127 84 144l7 -12q-4 -21 -29 -99q-19 -59 -19 -103q0 -154 208 -154q258 0 385 173q24 33 24 50 q0 27 -33 91q-30 58 -52 84l90 126q62 -177 167 -177q111 0 159 58q12 15 45 104q29 79 41 79q17 0 17 -32q0 -20 -6.5 -60.5t-6.5 -60.5q0 -42 80 -72q66 -25 117 -25q100 0 100 50q0 74 -65 170l72 121q74 -131 74 -291zM1485 754l-62 -115l-147 89l66 112zM1285 936 l-62 -114l-125 75l67 113zM1202 716l-63 -114l-146 89l66 112z" />
<glyph unicode="&#x635;" horiz-adv-x="1911" d="M1911 293q0 -126 -137 -214q-123 -79 -255 -79h-402q-97 0 -151 36q0 -231 -124 -364q-128 -136 -358 -136q-136 0 -218 68q-88 74 -88 207q0 60 35 187q39 142 75 159l5 -11q-2 -15 -21 -103q-13 -60 -13 -107q0 -113 80 -171q70 -51 187 -51q107 0 221 35 q154 47 154 128q0 50 -46 145q-40 82 -80 134l90 129q44 -66 82 -90q44 -27 118 -27q100 82 303 242q218 166 329 166q80 0 150 -103q64 -95 64 -180zM1831 264q0 55 -89 109q-82 50 -143 50q-92 0 -229 -98q-70 -53 -211 -158q302 0 370 4q302 18 302 93z" />
<glyph unicode="&#x636;" horiz-adv-x="1909" d="M1911 293q0 -126 -137 -214q-123 -79 -255 -79h-402q-97 0 -151 36q0 -231 -124 -364q-128 -136 -358 -136q-136 0 -218 68q-88 74 -88 207q0 60 35 187q39 142 75 159l5 -11q-2 -15 -21 -103q-13 -60 -13 -107q0 -113 80 -171q70 -51 187 -51q107 0 221 35 q154 47 154 128q0 50 -46 145q-40 82 -80 134l90 129q44 -66 82 -90q44 -27 118 -27q100 82 303 242q218 166 329 166q80 0 150 -103q64 -95 64 -180zM1831 264q0 55 -89 109q-82 50 -143 50q-92 0 -229 -98q-70 -53 -211 -158q302 0 370 4q302 18 302 93zM1567 918 l-63 -117l-154 94l68 115z" />
<glyph unicode="&#x637;" horiz-adv-x="1289" d="M1289 293q0 -126 -137 -214q-123 -79 -255 -79h-580q-56 0 -101 51q-41 45 -53 104q8 12 235 13q23 13 99 71q-25 236 -89 747l139 146q22 -272 22 -575q0 -172 -21 -279q394 298 527 298q80 0 150 -103q64 -95 64 -180zM1209 264q0 54 -90 109q-82 50 -142 50 q-93 0 -252 -97q-15 -9 -232 -159q304 0 393 5q323 18 323 92z" />
<glyph unicode="&#x638;" horiz-adv-x="1293" d="M1289 293q0 -126 -137 -214q-123 -79 -255 -79h-580q-56 0 -101 51q-41 45 -53 104q8 12 235 13q23 13 99 71q-25 236 -89 747l139 146q22 -272 22 -575q0 -172 -21 -279q394 298 527 298q80 0 150 -103q64 -95 64 -180zM1209 264q0 54 -90 109q-82 50 -142 50 q-93 0 -252 -97q-15 -9 -232 -159q304 0 393 5q323 18 323 92zM1027 918l-62 -117l-154 94l68 115z" />
<glyph unicode="&#x639;" horiz-adv-x="914" d="M1086 -637q-94 -118 -167 -154.5t-222 -36.5q-496 0 -496 418q0 281 224 499q-180 105 -180 243q0 111 59 206q68 109 171 109q57 0 139 -32q89 -35 116 -77l-13 -6q-17 2 -69 10q-45 7 -69 7q-75 0 -153 -57q-84 -62 -84 -134q0 -43 73 -83q66 -36 114 -36q78 0 378 123 l-65 -163q-205 -69 -353 -185q-193 -151 -193 -326q0 -187 153 -279q125 -75 327 -75q112 0 310 29z" />
<glyph unicode="&#x63a;" horiz-adv-x="833" d="M1086 -637q-94 -118 -167 -154.5t-222 -36.5q-496 0 -496 418q0 281 224 499q-180 105 -180 243q0 111 59 206q68 109 171 109q57 0 139 -32q89 -35 116 -77l-13 -6q-17 2 -69 10q-45 7 -69 7q-75 0 -153 -57q-84 -62 -84 -134q0 -43 73 -83q66 -36 114 -36q78 0 378 123 l-65 -163q-205 -69 -353 -185q-193 -151 -193 -326q0 -187 153 -279q125 -75 327 -75q112 0 310 29zM506 918l-63 -117l-153 94l68 115z" />
<glyph unicode="&#x640;" horiz-adv-x="538" d="M569 0h-600v178h600v-178z" />
<glyph unicode="&#x641;" horiz-adv-x="1486" d="M1486 280q0 -177 -134 -247q-67 -35 -341 -53q-196 -13 -374 -13q-203 0 -298 34q-161 57 -161 221q0 79 46 190q53 127 115 145l8 -11q-3 -28 -32 -90q-27 -57 -27 -93q0 -153 163 -198q76 -21 289 -21q254 0 456 26q-2 20 -63 105q-57 81 -57 141q0 71 59 170 q64 107 127 107q87 0 161 -166q63 -142 63 -247zM1396 187q6 24 6 54q0 90 -40 169q-49 96 -129 96q-34 0 -62.5 -33t-28.5 -67q0 -55 102 -123zM1206 909l-69 -129l-168 104l73 126z" />
<glyph unicode="&#x642;" horiz-adv-x="1031" d="M1031 112q0 -240 -156 -374q-148 -127 -391 -127q-137 0 -218 68q-88 73 -88 207q0 58 35 186q39 143 75 159l5 -10q-3 -25 -20 -103q-14 -63 -14 -107q0 -113 80 -171q70 -51 187 -51q133 0 270 52q176 67 176 177q0 32 -10 77q-97 -39 -177 -39q-77 0 -126.5 48 t-49.5 125q0 98 64 208q73 125 161 125q107 0 160 -182q37 -126 37 -268zM928 241q0 55 -43 112q-46 60 -100 60q-42 0 -78 -45t-36 -88q0 -51 141 -51q71 0 116 12zM1021 915l-68 -126l-161 97l73 124zM710 873l-69 -126l-160 98l72 124z" />
<glyph unicode="&#x644;" horiz-adv-x="967" d="M967 68q0 -209 -138 -335q-134 -123 -345 -123q-306 0 -306 308q0 65 35 188q40 140 79 162l5 -12q-2 -33 -21 -106q-17 -68 -17 -107q0 -122 72 -188.5t195 -66.5q121 0 225 41q139 55 139 155q0 87 -17 211q-10 70 -29 210q-10 81 -64 610l-5 48l115 161 q0 -193 38.5 -578t38.5 -578z" />
<glyph unicode="&#x645;" horiz-adv-x="828" d="M828 208q0 -25 -41.5 -121t-53.5 -96q-38 0 -112.5 20.5t-113.5 20.5q-84 0 -170 -27q-116 -36 -116 -101q0 -6 31 -100q92 -279 92 -478l-31 -90q-30 200 -81 388q-54 198 -54 221q0 59 48 155q55 109 128 154.5t194 45.5q53 0 110 -14q-101 131 -202 131q-43 0 -76 -19 q-6 -3 -61 -47l-2 7q8 81 55 141q53 67 130 67t199 -91q127 -94 127 -167z" />
<glyph unicode="&#x646;" horiz-adv-x="958" d="M637 630l-50 -128l-176 79l59 125zM958 39q0 -187 -146 -309q-138 -116 -328 -116q-306 0 -306 308q0 67 35 189q39 138 79 162l5 -12q-2 -33 -21 -107q-17 -68 -17 -107q0 -122 72 -188.5t195 -66.5t223 33q141 47 141 142q0 61 -40 141q-36 73 -83 122l90 139 q101 -123 101 -330z" />
<glyph unicode="&#x647;" horiz-adv-x="693" d="M693 284q0 -133 -74 -208.5t-206 -75.5q-128 0 -180 45q-55 49 -55 175q0 204 209 470q306 -145 306 -406zM600 271q0 54 -90 138q-74 70 -140 105q-99 -148 -99 -232q0 -104 120 -104q60 0 123 20q86 27 86 73z" />
<glyph unicode="&#x648;" horiz-adv-x="714" d="M714 157q0 -217 -90 -373q-109 -190 -310 -190q-61 0 -149 53q-78 47 -126 102q115 -31 175 -31q143 0 265 94q126 97 147 235q-150 0 -228 31q-119 48 -119 176q0 101 60 207q68 121 161 121q108 0 168 -167q46 -127 46 -258zM634 220q-19 70 -64 132q-57 78 -114 78 q-30 0 -69 -44t-39 -74q0 -89 286 -92z" />
<glyph unicode="&#x649;" horiz-adv-x="1482" d="M1482 613l-71 -134q-30 54 -101 54q-98 0 -219 -114q-99 -93 -157 -201q121 -34 247 -71q195 -57 195 -106q0 -166 -328 -328q-291 -144 -481 -144q-179 0 -281 86q-108 93 -108 269q0 91 49 227q58 160 125 180l8 -10q-8 -25 -63 -144q-39 -84 -39 -163q0 -134 100 -206 q88 -62 228 -62q135 0 308 46q189 50 284 123q26 20 26 33q0 21 -196.5 68t-196.5 74q0 161 192 384q197 229 356 229q120 0 123 -90z" />
<glyph unicode="&#x64b;" d="M452 1467l-19 -67l-268 -133l28 68zM452 1333l-19 -66l-268 -133l28 67z" />
<glyph unicode="&#x64c;" d="M417 1484q0 -57 -74 -128q11 -6 67 -20l-61 -54q-38 5 -76 33q-50 -36 -126 -64q-81 -30 -137 -30l28 68q20 4 58 13q-27 38 -27 71q0 52 24 101l61 28q-29 -52 -29 -94q0 -57 34 -86q44 12 73 31q-38 42 -38 86q0 34 56.5 85.5t91.5 51.5q75 0 75 -92zM349 1473 q0 48 -39 48q-19 0 -39.5 -16t-20.5 -34q0 -41 51 -85q48 30 48 87z" />
<glyph unicode="&#x64d;" d="M469 -933l-19 -66l-268 -134l27 68zM469 -1066l-19 -67l-268 -133l27 68z" />
<glyph unicode="&#x64e;" d="M352 1413l-19 -67l-267 -133l26 68z" />
<glyph unicode="&#x64f;" d="M401 1474q0 -57 -74 -128q11 -6 67 -20l-61 -54q-41 8 -76 33q-88 -65 -211 -83l28 69q93 21 142 52q-38 42 -38 86q0 34 56.5 85t91.5 51q75 0 75 -91zM333 1462q0 49 -39 49q-21 0 -40.5 -16t-19.5 -37q0 -35 50 -82q49 29 49 86z" />
<glyph unicode="&#x650;" d="M469 -933l-19 -66l-268 -134l27 68z" />
<glyph unicode="&#x651;" d="M356 1556q0 -49 -28 -85q-30 -39 -78 -39q-17 0 -31 7q-53 -87 -102 -87q-71 0 -71 80q0 95 45 118q8 -6 8 -15q0 -8 -3.5 -24.5t-3.5 -24.5q0 -46 39 -46q38 0 52 73q16 81 37 92q6 -3 17 -35.5t31 -32.5q34 0 48 59q16 67 18 71q22 -38 22 -111z" />
<glyph unicode="&#x652;" d="M347 1563q0 -52 -26 -89q-29 -43 -79 -43q-111 0 -111 133q0 41 28 86q32 50 70 50q51 0 86 -44q32 -41 32 -93zM291 1552q-23 52 -73 52q-35 0 -35 -34q0 -35 43 -35q46 0 65 17z" />
<glyph unicode="&#x67e;" horiz-adv-x="1293" d="M1290 274q0 -212 -241 -278q-120 -33 -412 -33q-203 0 -298 34q-161 58 -161 221q0 78 46 189q52 126 114 145l9 -11q-4 -27 -39 -89q-31 -55 -31 -94q0 -149 162 -195q81 -23 285 -23q137 0 269 19q211 30 211 98q0 46 -100 164l92 142q94 -165 94 -289zM1012 -259 l-62 -115l-147 89l67 112zM911 -468l-67 -113l-120 74l63 114zM729 -297l-62 -114l-147 89l67 112z" />
<glyph unicode="&#x686;" horiz-adv-x="982" d="M964 -178l-57 -104l-135 81l60 103zM857 -372l-56 -104l-111 68l60 103zM686 -212l-57 -104l-135 81l60 103zM1086 -637q-94 -118 -167 -154.5t-222 -36.5q-496 0 -496 418q0 172 89 352q90 184 227 283q-81 20 -140 20q-69 0 -110 -20q-60 -29 -79 -33l-8 11 q3 70 83 133q77 61 149 61q78 0 232.5 -28t233.5 -28q88 0 195 19l6 -7q-3 -9 -106 -160q-110 14 -141 14q-207 0 -374 -149q-173 -154 -173 -359q0 -189 158 -285q131 -80 333 -80q112 0 310 29z" />
<glyph unicode="&#x698;" horiz-adv-x="646" d="M603 115q0 -150 -58 -286q-74 -174 -205 -174q-57 0 -168 51t-151 94l3 3q3 0 72 -15q42 -9 72 -9q140 0 254 103q109 99 138 239q-12 47 -76 139q-56 80 -100 127l90 141q76 -99 104 -194q25 -85 25 -219zM618 868l-61 -116l-148 89l67 112zM418 1049l-61 -114l-126 75 l67 113zM335 829l-62 -114l-147 89l67 112z" />
<glyph unicode="&#x6af;" horiz-adv-x="1479" d="M1486 1314l-28 -92q-110 -34 -289 -133q-183 -102 -263 -177v69q0 46 259 184q240 128 321 149zM1504 1140l-60 -178q-304 -86 -425 -210q460 -211 460 -474q0 -208 -342 -277q-169 -34 -500 -34q-203 0 -298 34q-161 57 -161 221q0 79 46 190q53 127 115 145l8 -11 q-3 -28 -32 -90q-27 -57 -27 -93q0 -150 156 -196q78 -23 280 -23q116 0 338 20q265 24 307 53q24 17 24 44q0 107 -212 233q-155 92 -311 142v117q35 82 287 223q209 117 347 164z" />
<glyph unicode="&#x200c;" horiz-adv-x="45" />
<glyph unicode="&#x200d;" horiz-adv-x="45" />
<glyph unicode="&#x200e;" horiz-adv-x="33" d="M219 1167l-97 -100l-25 21l64 64h-128v-1152h-33v1183h157l-60 60l25 23z" />
<glyph unicode="&#x200f;" horiz-adv-x="33" d="M33 0h-33v1152h-128l62 -64l-21 -21l-101 100l101 99l21 -23l-60 -60h159v-1183z" />
<glyph unicode="&#x2018;" horiz-adv-x="496" d="M472 1502q-92 -63 -156 -147q-76 -100 -76 -195q0 -55 31 -99q39 48 91 48q103 0 103 -102q0 -60 -48 -94q-42 -30 -105 -30q-84 0 -135 51t-51 135q0 142 110 286q98 129 236 200v-53z" />
<glyph unicode="&#x2019;" horiz-adv-x="496" d="M449 1367q0 -147 -108 -285q-91 -116 -236 -201v56q232 163 232 341q0 62 -35 102q-33 -48 -95 -48q-42 0 -70.5 27.5t-28.5 69.5q0 60 49 94q43 30 106 30q186 0 186 -186z" />
<glyph unicode="&#x201c;" horiz-adv-x="656" d="M577 1158q-12 -6 -41 -27q-52 -51 -52 -97q83 -20 83 -111q0 -46 -32 -79t-78 -33q-52 0 -84 42q-30 39 -30 92q0 203 205 362q0 -76 2 -93q5 -42 27 -56zM304 1158q-12 -6 -41 -27q-52 -51 -52 -97q83 -20 83 -111q0 -46 -32 -79t-78 -33q-52 0 -84 42q-30 39 -30 92 q0 203 205 362q0 -76 2 -93q5 -42 27 -56z" />
<glyph unicode="&#x201d;" horiz-adv-x="656" d="M585 1162q0 -202 -204 -362v94q-5 41 -29 55q12 7 41 27q52 52 52 98q-83 20 -83 111q0 48 31 80t79 32q113 0 113 -135zM312 1162q0 -202 -204 -362v94q-5 41 -29 55q12 7 41 27q52 52 52 98q-83 20 -83 111q0 47 31.5 79.5t78.5 32.5q113 0 113 -135z" />
<glyph unicode="&#x2039;" horiz-adv-x="383" d="M373 56q-5 -13 -17 -13q-76 0 -132 135q-46 111 -46 201q0 92 45 201q55 134 133 134q17 0 17 -13q0 77 -48.5 -98t-48.5 -224q0 -96 28 -161q22 -47 62 -142z" />
<glyph unicode="&#x203a;" horiz-adv-x="687" d="M685 379q0 -89 -47 -201q-57 -135 -132 -135q-12 0 -17 13q21 41 66 138q32 79 32 185q0 141 -90 303q-6 11 -8 20q5 12 18 12q75 0 131 -135q47 -113 47 -200z" />
<glyph unicode="&#xe000;" horiz-adv-x="500" d="M0 0v0v0v0v0z" />
<glyph unicode="&#xe820;" d="M361 1001l-19 -66l-268 -134l26 68z" />
<glyph unicode="&#xe821;" d="M418 1099q0 -56 -74 -127q11 -6 66 -20l-60 -55q-41 8 -77 33q-88 -64 -210 -82l27 68q94 22 143 53q-39 41 -39 86q0 33 57.5 84.5t91.5 51.5q75 0 75 -92zM350 1088q0 49 -40 49q-20 0 -39.5 -16.5t-19.5 -36.5q0 -36 49 -83q50 29 50 87z" />
<glyph unicode="&#xe822;" d="M328 999q0 -52 -26 -89q-29 -42 -79 -42q-111 0 -111 133q0 40 29 85q31 50 69 50q51 0 86 -44q32 -40 32 -93zM272 988q-23 52 -73 52q-35 0 -35 -34q0 -35 43 -35q46 0 65 17z" />
<glyph unicode="&#xe823;" d="M444 1137l-19 -66l-268 -134l27 68zM444 1004l-19 -67l-268 -133l27 68z" />
<glyph unicode="&#xe824;" d="M467 1105q0 -56 -74 -127q11 -6 67 -20l-61 -55q-38 6 -77 33q-49 -35 -126 -63q-81 -30 -136 -30l28 67q19 5 58 13q-28 38 -28 71q0 53 25 101l60 28q-28 -52 -28 -94q0 -57 33 -85q45 12 74 31q-38 41 -38 86q0 33 57 84.5t91 51.5q75 0 75 -92zM399 1094q0 48 -39 48 q-20 0 -40 -15.5t-20 -34.5q0 -41 51 -85q48 30 48 87z" />
<glyph unicode="&#xe825;" d="M356 1118q0 -48 -28 -85q-31 -39 -78 -39q-17 0 -31 8q-53 -87 -102 -87q-71 0 -71 79q0 96 45 119q8 -6 8 -16q0 -8 -3.5 -24t-3.5 -24q0 -46 39 -46q38 0 52 72q16 81 37 92q7 -3 18 -37q11 -30 30 -30q34 0 48 59q16 65 18 71q22 -38 22 -112z" />
<glyph unicode="&#xe826;" d="M380 -317l-19 -67l-268 -133l27 68z" />
<glyph unicode="&#xe827;" d="M368 -323l-20 -67l-267 -133l27 68zM368 -456l-20 -67l-267 -133l27 67z" />
<glyph unicode="&#xe828;" d="M324 1320l-19 -66l-268 -134l27 68zM335 1016q0 -49 -28 -85q-30 -39 -77 -39q-18 0 -32 7q-52 -87 -102 -87q-71 0 -71 80q0 95 46 118q8 -5 8 -15q0 -8 -3.5 -24t-3.5 -24q0 -47 38 -47q39 0 53 73q16 81 36 92q10 -4 19 -38q8 -30 29 -30q35 0 49 59l17 72 q22 -38 22 -112z" />
<glyph unicode="&#xe829;" d="M348 1414q0 -56 -73 -127q11 -6 66 -20l-60 -55q-41 9 -77 34q-88 -65 -210 -83l27 69q92 21 142 52q-38 44 -38 86q0 33 57.5 84.5t91.5 51.5q74 0 74 -92zM335 1016q0 -49 -28 -85q-30 -39 -77 -39q-18 0 -32 7q-52 -87 -102 -87q-71 0 -71 80q0 95 46 118q8 -5 8 -15 q0 -8 -3.5 -24t-3.5 -24q0 -47 38 -47q39 0 53 73q16 81 36 92q10 -4 19 -38q8 -30 29 -30q35 0 49 59l17 72q22 -38 22 -112zM281 1403q0 49 -40 49q-21 0 -40 -16t-19 -37q0 -36 49 -83q50 30 50 87z" />
<glyph unicode="&#xe82a;" d="M330 1454l-19 -67l-268 -133l28 67zM330 1320l-19 -66l-268 -134l28 68zM346 1016q0 -49 -28 -85q-30 -39 -77 -39q-18 0 -32 7q-52 -87 -102 -87q-71 0 -71 80q0 95 46 118q8 -5 8 -15q0 -8 -3.5 -24t-3.5 -24q0 -47 38 -47q39 0 53 73q16 81 36 92q8 -3 18 -35.5 t31 -32.5q34 0 48 59l17 72q22 -38 22 -112z" />
<glyph unicode="&#xe82b;" d="M385 1426q0 -57 -74 -128q11 -6 67 -20l-61 -54q-38 5 -77 33q-49 -36 -125 -64q-81 -30 -137 -30l28 68q19 4 58 13q-28 38 -28 70q0 53 25 101l60 29q-28 -52 -28 -94q0 -57 33 -86q45 12 74 31q-38 42 -38 86q0 34 56.5 85t91.5 51q75 0 75 -91zM335 1016 q0 -49 -28 -85q-30 -39 -77 -39q-18 0 -32 7q-52 -87 -102 -87q-71 0 -71 80q0 95 46 118q8 -5 8 -15q0 -8 -3.5 -24t-3.5 -24q0 -47 38 -47q39 0 53 73q16 81 36 92q10 -4 19 -38q8 -30 29 -30q35 0 49 59l17 72q22 -38 22 -112zM317 1414q0 49 -39 49q-20 0 -40 -16 t-20 -35q0 -40 51 -84q48 30 48 86z" />
<glyph unicode="&#xe82c;" d="M324 1205q0 -49 -28 -85q-30 -39 -77 -39q-18 0 -32 7q-52 -87 -102 -87q-71 0 -71 80q0 95 46 118q8 -5 8 -15q0 -8 -3.5 -24t-3.5 -24q0 -47 38 -47q39 0 53 73q15 81 36 92q10 -4 19 -38q8 -30 29 -30q35 0 49 59l17 71q22 -37 22 -111zM309 996l-18 -66l-269 -134 l27 68z" />
<glyph unicode="&#xe82d;" d="M337 1345q0 -52 -26 -89q-29 -42 -79 -42q-18 0 -32 7q-46 -86 -102 -86q-71 0 -71 79q0 93 46 119q8 -6 8 -16q0 -8 -3.5 -24t-3.5 -24q0 -47 39 -47q37 0 52 74q17 81 36 91q8 -3 18.5 -35.5t29.5 -32.5q35 0 49 59l17 72q22 -39 22 -105zM321 1132l-18 -67l-268 -133 l27 67zM321 998l-18 -66l-268 -134l27 68z" />
<glyph horiz-adv-x="1" d="M559 631l51 -43l-3 -269l-49 49z" />
</font>
</defs>
</svg>
