<?xml version="1.0" standalone="no"?>
<!DOCTYPE svg PUBLIC "-//W3C//DTD SVG 1.1//EN" "http://www.w3.org/Graphics/SVG/1.1/DTD/svg11.dtd" >
<svg xmlns="http://www.w3.org/2000/svg">
<metadata></metadata>
<defs>
<font id="b_davatregular" horiz-adv-x="0" >
<font-face units-per-em="2048" ascent="1638" descent="-410" />
<missing-glyph horiz-adv-x="345" />
<glyph unicode="&#x651;&#x64b;" d="M492 1665q0 -57 -30 -107q-35 -56 -89 -56q-43 0 -66 44q-37 -80 -99 -80q-41 0 -64 39q-20 33 -20 77q0 112 45 112q4 0 19 -48t45 -48q29 0 54 57.5t36 57.5q6 0 19 -43.5t29 -43.5q32 0 60.5 51.5t30.5 51.5q30 0 30 -64zM477 1999l-22 -103l-360 -112l14 103z M477 2186l-22 -103l-360 -112l14 103z" />
<glyph unicode="&#x651;&#x64c;" arabic-form="isolated" d="M521 1658q0 -57 -30 -107q-35 -56 -89 -56q-43 0 -66 44q-37 -80 -99 -80q-41 0 -64 39q-20 33 -20 77q0 112 45 112q4 0 19 -48t45 -48q29 0 54 57.5t36 57.5q6 0 19 -43.5t29 -43.5q32 0 60.5 51.5t30.5 51.5q30 0 30 -64zM519 1984q0 -41 -47 -112l-73 30 q-28 -35 -88 -74q-76 -50 -134 -50q-12 0 -26 76q7 2 39 16q2 22 2 39q0 59 -34 59q-13 0 -32 -25.5t-21 -25.5q-24 0 -24 60q0 34 28.5 70.5t60.5 36.5q38 0 62 -31.5t24 -70.5q0 -65 -9 -90q58 32 80 64q-48 44 -48 108q0 63 33 119q40 66 96 66q89 0 89 -114 q0 -67 -30 -128q12 -12 52 -23zM407 2043q19 28 19 57q0 58 -41 58q-32 0 -32 -51q0 -18 18 -38.5t36 -25.5z" />
<glyph unicode="&#x651;&#x64d;" arabic-form="isolated" d="M512 2163q0 -57 -30 -107q-35 -56 -89 -56q-43 0 -66 44q-37 -80 -99 -80q-41 0 -64 39q-20 33 -20 77q0 112 45 112q4 0 19 -48t45 -48q29 0 54 57.5t36 57.5q6 0 19 -43.5t29 -43.5q32 0 60.5 51.5t30.5 51.5q30 0 30 -64zM520 1737l-21 -105l-361 -110l15 103z M520 1924l-21 -105l-361 -110l15 103z" />
<glyph unicode="&#x651;&#x64e;" arabic-form="isolated" d="M512 1626q0 -57 -30 -107q-35 -56 -89 -56q-43 0 -66 44q-37 -80 -99 -80q-41 0 -64 39q-20 33 -20 77q0 112 45 112q4 0 19 -48t45 -48q29 0 54 57.5t36 57.5q6 0 19 -43.5t29 -43.5q32 0 60.5 51.5t30.5 51.5q30 0 30 -64zM497 1936l-21 -103l-361 -112l14 103z" />
<glyph unicode="&#x651;&#x64f;" arabic-form="isolated" d="M531 1636q0 -57 -30 -107q-35 -56 -89 -56q-43 0 -66 44q-37 -80 -99 -80q-41 0 -64 39q-20 33 -20 77q0 112 45 112q4 0 19 -48t45 -48q29 0 54 57.5t36 57.5q6 0 19 -43.5t29 -43.5q32 0 60.5 51.5t30.5 51.5q30 0 30 -64zM520 1971q0 -41 -46 -112l-73 30 q-28 -35 -89 -74q-76 -50 -133 -50q-12 0 -27 76q128 34 176 102q-48 44 -48 108q0 63 34 119q40 66 96 66q89 0 89 -114q0 -68 -30 -128q12 -12 51 -23zM408 2030q20 28 20 56q0 59 -41 59q-32 0 -32 -51q0 -18 17.5 -38.5t35.5 -25.5z" />
<glyph unicode="&#x651;&#x650;" arabic-form="isolated" d="M502 1919q0 -57 -30 -107q-35 -56 -89 -56q-43 0 -66 44q-37 -80 -99 -80q-41 0 -64 39q-20 33 -20 77q0 112 45 112q4 0 19 -48t45 -48q29 0 54 57.5t36 57.5q6 0 19 -43.5t29 -43.5q32 0 60.5 51.5t30.5 51.5q30 0 30 -64zM508 1695l-21 -105l-363 -110l16 103z" />
<glyph unicode="&#xfedf;&#xfee0;&#xfeea;" horiz-adv-x="1559" arabic-form="isolated" d="M1233 0h-32q-71 0 -101 44q-14 21 -42 113q-50 -157 -273 -157v167q72 0 145 22q111 35 111 111q0 36 -12 127q-28 213 -46 335q-22 156 -22 195q0 86 20 105q13 0 28 -22t17 -35q0 -23 1 -67q3 -22 8 -69q0 -17 2 -51q14 -76 43 -252l36 -247q0 -17 5 -49 q31 -103 83 -103h29v-167zM1490 852l-2 -9q-16 -61 -23 -81q-18 -51 -44 -67q43 -231 53 -403v-48q2 -23 6 -101q3 -36 -52 -108q-48 -35 -168 -35h-32v167q143 0 160 16q0 80 -4 130q-2 14 -9 68q-17 114 -37 343l-62 66q-6 16 -6 45q0 103 18 174q3 14 54 104l6 3q3 1 7 1 q21 0 18 -15q-18 -105 -18 -129q0 -14 3 -33q3 -27 69 -39q20 1 56 -18q11 -15 7 -31zM853 7l-50 -4q-17 -2 -33 -2q-118 0 -196 67q-51 44 -133 201q-7 -23 -24 -62q-10 -25 -123 -46q-95 -18 -146 -18q-84 0 -84 54q0 12 12 54q19 68 63 111q21 21 103 79l167 116 q-4 82 7 99l16 89q6 35 33 35q7 0 15 -15q4 -100 22 -297q4 -17 13 -49q47 -170 151 -224q50 -26 187 -26v-162zM408 340q-4 38 -15 86q-25 -7 -189 -102l6 -16l14 -5q76 10 184 37zM1146 1427q0 -57 -30 -107q-35 -57 -89 -57q-43 0 -66 45q-37 -80 -99 -80q-41 0 -64 39 q-20 33 -20 76q0 112 45 112q4 0 19 -48t45 -48q29 0 54 58t36 58q6 0 19 -43.5t29 -43.5q32 0 60.5 51.5t30.5 51.5q30 0 30 -64z" />
<glyph unicode="&#xfedf;&#xfe82;" horiz-adv-x="1143" arabic-form="isolated" d="M1092 942q0 -13 -17.5 -61t-26.5 -58q-16 -17 -33 -26q1 -9 1 -22q0 -160 -97 -406q86 -152 78 -207q-13 -84 -17 -100q-15 -60 -47 -87q-7 -6 -200 -43q-102 -19 -169 -41q-28 3 -32 46q0 45 -2 68q0 12 3 16q15 21 51 43q40 25 53 38q108 107 172 215 q-166 278 -318 414q-36 -23 -80 -23q-61 0 -127 29q-70 32 -101 79q-3 19 -3 62q0 109 25 187q18 56 65 56q11 0 22 -6q129 -69 320 -299q156 -187 262 -361q59 164 59 371q-27 21 -66 69q-5 30 -5 51q0 117 24 180q8 19 49 90q6 3 13 4q8 0 14 -5q3 -7 3 -29q0 -7 -10 -53 q-6 -29 -6 -83q0 -34 75 -58q24 -4 47 -8q21 -7 21 -42zM892 145q-8 22 -34 81q-5 -12 -40 -51q-29 -34 -29 -45q0 -2 1 -5q13 -5 26 -5q76 0 76 25zM559 1427q0 -29 -56 -71q-49 -37 -84 -48q-83 -25 -128 -25q-41 13 -116 23l-56 7q-57 7 -174 -98q-2 -2 -5 -2q-5 0 -8 2 l-5 17q38 176 232 176q30 0 89.5 -10.5t89.5 -10.5q41 0 170 51q13 7 38 15q13 -17 13 -26z" />
<glyph unicode="&#xfee0;&#xfe82;" horiz-adv-x="1394" arabic-form="final" d="M1417 0h-39q-97 0 -138 94q-19 44 -38 179q-31 218 -31 339q-51 -203 -210 -374q-151 -162 -353 -248q-22 -9 -182 -28q-120 -14 -264 -14q-26 0 -35 22q0 12 23 25q250 38 539 231q0 108 -59 243q-58 132 -136 210q-40 -23 -76 -23q-51 0 -122 33q-76 36 -92 79 q-3 6 -3 28q0 49 12 125q13 85 17 92q18 64 56 64q9 0 20 -6q132 -74 284 -312q28 -43 82 -151q81 -160 81 -337q29 14 105 84q135 122 201 253q78 154 78 235v70l-2 70q-2 128 16 134q13 -1 28 -21.5t16 -33.5t2 -48q0 -67 20 -263l24 -151q5 -31 40 -285q20 -148 100 -148 h36v-167zM563 1398q0 -29 -56 -71q-49 -37 -84 -48q-82 -25 -127 -25q-42 13 -117 23l-56 7q-57 7 -174 -97q-1 -3 -4 -3q-5 0 -9 3l-4 16q38 176 232 176q30 0 89 -10.5t89 -10.5q42 0 170 51q13 7 38 16q13 -18 13 -27z" />
<glyph unicode="&#xfedf;&#xfe84;" horiz-adv-x="1097" arabic-form="isolated" d="M1046 942q0 -13 -18 -61t-26 -58q-16 -17 -34 -26q2 -9 2 -22q0 -160 -97 -406q86 -152 78 -207q-13 -84 -17 -100q-15 -60 -48 -87q-6 -6 -200 -43q-101 -19 -169 -41q-27 3 -32 46q0 45 -1 68q-1 12 2 16q16 21 52 43q40 25 53 38q107 107 172 215q-166 278 -318 414 q-36 -23 -80 -23q-61 0 -127 29q-71 32 -101 79q-3 19 -3 62q0 109 25 187q18 56 65 56q11 0 22 -6q129 -69 320 -299q156 -187 262 -361q58 164 58 371q-26 21 -65 69q-5 30 -5 51q0 117 24 180q7 19 49 90q6 3 13 4q8 0 14 -5q2 -7 2 -29q0 -7 -9 -53q-6 -29 -6 -83 q0 -34 75 -58q24 -4 46 -8q22 -7 22 -42zM846 145q-8 22 -35 81q-5 -12 -39 -51q-30 -34 -30 -45q1 -2 2 -5q13 -5 26 -5q76 0 76 25zM356 1415q0 -23 -20 -59.5t-39 -48.5l-69 -40q-54 -38 -148 -91q-18 -6 -29 30q25 28 54 78l-61 17q-45 13 -45 89q0 57 77 115 q73 56 131 56q13 0 30 -11q2 -5 4 -12q0 -26 -20.5 -63t-44.5 -44q-12 0 -25 16q-33 -5 -44 -9q-24 -9 -34 -27q8 -35 87 -35q29 0 92 23t91 23q13 0 13 -7z" />
<glyph unicode="&#xfee0;&#xfe84;" horiz-adv-x="1359" arabic-form="final" d="M1383 0h-40q-97 0 -138 94q-19 44 -38 179q-31 218 -31 339q-51 -203 -210 -374q-151 -162 -352 -248q-23 -9 -182 -28q-120 -14 -265 -14q-26 0 -34 22q0 12 22 25q250 38 539 231q0 108 -59 243q-57 132 -136 210q-40 -23 -76 -23q-51 0 -121 33q-77 36 -93 79 q-2 6 -2 28q0 49 11 125q14 85 17 92q18 64 56 64q10 0 20 -6q132 -74 285 -312q27 -43 82 -151q81 -160 81 -337q28 14 104 84q136 122 202 253q77 154 77 235v70l-1 70q-2 128 15 134q13 -1 28 -21.5t16 -33.5t3 -48q0 -67 20 -263l24 -151q5 -31 39 -285 q20 -148 100 -148h37v-167zM422 1440q0 -23 -20 -60t-39 -48l-69 -41q-54 -38 -148 -90q-18 -6 -29 30q25 28 54 78l-61 17q-45 12 -45 89q0 56 77 115q73 55 131 55q13 0 30 -11q2 -4 4 -11q0 -27 -20 -62q-21 -38 -45 -46q-11 0 -25 17q-33 -5 -44 -9q-24 -9 -34 -28 q8 -34 87 -34q29 0 92 23t91 23q13 0 13 -7z" />
<glyph unicode="&#xfedf;&#xfe88;" horiz-adv-x="1051" arabic-form="isolated" d="M1000 942q0 -13 -18 -61t-26 -58q-16 -17 -34 -26q1 -9 1 -22q0 -160 -96 -406q86 -152 77 -207q-12 -84 -16 -100q-15 -60 -48 -87q-7 -6 -200 -43q-101 -19 -169 -41q-27 3 -32 46q0 45 -1 68q-1 12 2 16q16 21 51 43q41 25 54 38q107 107 171 215q-165 278 -317 414 q-36 -23 -80 -23q-61 0 -127 29q-71 32 -102 79q-2 19 -2 62q0 109 25 187q18 56 64 56q12 0 23 -6q129 -69 320 -299q156 -187 262 -361q58 164 58 371q-26 21 -65 69q-5 30 -5 51q0 117 24 180q7 19 49 90q5 3 13 4q8 0 14 -5q2 -7 2 -29q0 -7 -9 -53q-6 -29 -6 -83 q0 -34 75 -58q24 -4 46 -8q22 -7 22 -42zM800 145q-9 22 -35 81q-5 -12 -39 -51q-30 -34 -30 -45q0 -2 1 -5q13 -5 27 -5q76 0 76 25zM772 -430q0 -24 -20 -60.5t-39 -48.5l-69 -40q-54 -38 -148 -91q-18 -5 -29 30q25 29 54 79l-61 16q-45 13 -45 90q0 56 77 114 q73 56 131 56q13 0 30 -11q2 -5 4 -12q0 -26 -20.5 -63t-44.5 -44q-12 0 -25 17q-33 -6 -44 -10q-24 -9 -34 -27q8 -35 87 -35q29 0 92 23.5t91 23.5q13 0 13 -7z" />
<glyph unicode="&#xfee0;&#xfe88;" horiz-adv-x="1359" arabic-form="final" d="M1383 0h-40q-97 0 -138 94q-19 44 -38 179q-31 218 -31 339q-51 -203 -210 -374q-151 -162 -352 -248q-23 -9 -182 -28q-120 -14 -265 -14q-26 0 -34 22q0 12 22 25q250 38 539 231q0 108 -59 243q-57 132 -136 210q-40 -23 -76 -23q-51 0 -121 33q-77 36 -93 79 q-2 6 -2 28q0 49 11 125q14 85 17 92q18 64 56 64q10 0 20 -6q132 -74 285 -312q27 -43 82 -151q81 -160 81 -337q28 14 104 84q136 122 202 253q77 154 77 235v70l-1 70q-2 128 15 134q13 -1 28 -21.5t16 -33.5t3 -48q0 -67 20 -263l24 -151q5 -31 39 -285 q20 -148 100 -148h37v-167zM928 -312q0 -23 -20 -59.5t-40 -48.5l-69 -40q-53 -38 -147 -91q-18 -6 -29 30q25 29 54 78l-61 17q-45 13 -45 89q0 57 77 115q73 56 131 56q13 0 30 -11q2 -5 3 -12q0 -26 -19 -62q-22 -38 -45 -45q-12 0 -25 17q-33 -6 -44 -10q-24 -9 -34 -27 q8 -35 87 -35q29 0 91.5 23.5t91.5 23.5q13 0 13 -8z" />
<glyph unicode="&#xfedf;&#xfe8e;" horiz-adv-x="1051" arabic-form="isolated" d="M1000 942q0 -13 -18 -61t-26 -58q-16 -17 -34 -26q1 -9 1 -22q0 -160 -96 -406q86 -152 77 -207q-12 -84 -16 -100q-15 -60 -48 -87q-7 -6 -200 -43q-101 -19 -169 -41q-27 3 -32 46q0 45 -1 68q-1 12 2 16q16 21 51 43q41 25 54 38q107 107 171 215q-165 278 -317 414 q-36 -23 -80 -23q-61 0 -127 29q-71 32 -102 79q-2 19 -2 62q0 109 25 187q18 56 64 56q12 0 23 -6q129 -69 320 -299q156 -187 262 -361q58 164 58 371q-26 21 -65 69q-5 30 -5 51q0 117 24 180q7 19 49 90q5 3 13 4q8 0 14 -5q2 -7 2 -29q0 -7 -9 -53q-6 -29 -6 -83 q0 -34 75 -58q24 -4 46 -8q22 -7 22 -42zM800 145q-9 22 -35 81q-5 -12 -39 -51q-30 -34 -30 -45q0 -2 1 -5q13 -5 27 -5q76 0 76 25z" />
<glyph unicode="&#xfee0;&#xfe8e;" horiz-adv-x="1359" arabic-form="final" d="M1383 0h-40q-97 0 -138 94q-19 44 -38 179q-31 218 -31 339q-51 -203 -210 -374q-151 -162 -352 -248q-23 -9 -182 -28q-120 -14 -265 -14q-26 0 -34 22q0 12 22 25q250 38 539 231q0 108 -59 243q-57 132 -136 210q-40 -23 -76 -23q-51 0 -121 33q-77 36 -93 79 q-2 6 -2 28q0 49 11 125q14 85 17 92q18 64 56 64q10 0 20 -6q132 -74 285 -312q27 -43 82 -151q81 -160 81 -337q28 14 104 84q136 122 202 253q77 154 77 235v70l-1 70q-2 128 15 134q13 -1 28 -21.5t16 -33.5t3 -48q0 -67 20 -263l24 -151q5 -31 39 -285 q20 -148 100 -148h37v-167z" />
<glyph unicode="&#x6c0;" horiz-adv-x="540" arabic-form="isolated" d="M406 857q0 -25 -23.5 -66t-44 -54t-76.5 -44q-23 -18 -87 -58q-71 -45 -82 -45q-15 0 -25 35q1 15 28.5 44.5t30.5 42.5l-68 19q-49 14 -49 98q0 65 84 128q79 60 146 60q17 0 34 -10q2 -6 3 -13q0 -29 -23 -69.5t-48 -51.5q-10 0 -28 19q-20 -3 -58 -14q-20 -9 -30 -26 q10 -38 98 -38q34 0 101.5 25.5t102.5 25.5q14 0 14 -8zM481 297q0 -34 -16 -84q-40 -131 -169 -192q-75 -35 -127 -35q-88 0 -88 126q0 13 15 83q25 113 122 250q3 41 34 57q90 0 149 -47q80 -64 80 -158zM386 243q0 30 -59 64q-53 31 -87 31q-13 0 -45.5 -60t-32.5 -78 q0 -22 26 -38t49 -16q34 0 89 32q60 34 60 65z" />
<glyph unicode="&#x6a9;" horiz-adv-x="1606" arabic-form="isolated" d="M1589 1367q0 -64 -37 -123q-92 -36 -452 -188q-85 -36 -253 -111l-8 -14l4 -9l173 -152q97 -85 162 -163q31 -37 67 -109q39 -76 45 -117q2 -17 2 -51q0 -49 -14 -119q-17 -82 -65 -122q-58 -46 -269 -110q-298 -91 -588 -91q-301 0 -311 198q-2 49 -2 75q0 213 112 340 q51 58 77 58q4 -2 7 -8q-1 -25 -52 -123q-58 -111 -68 -147q-7 -27 -7 -79q0 -23 31 -75q42 -71 250 -71q158 0 526 94q284 73 284 126q0 62 -95 199q-33 47 -201 189q-154 130 -155 146q-2 31 -2 38q0 115 102 242q171 81 528 231q131 54 199 77q10 -6 10 -31z" />
<glyph unicode="&#x6cc;" horiz-adv-x="1067" arabic-form="isolated" d="M990 288q0 -19 -15 -55q-17 -40 -33 -40q11 0 11 5q0 9 -38 36q-59 42 -77 42q-103 0 -229 -125q-106 -105 -106 -147q0 -80 135 -83q291 -4 291 -117q0 -103 -71 -206q-89 -130 -315 -182q-139 -32 -219 -32q-119 0 -197.5 81t-78.5 201q0 48 7 109q2 18 21.5 92 t25.5 84q88 139 124 139q8 0 17 -10q6 -15 6 -24l-63 -108t-63 -156q0 -109 66 -169.5t175 -60.5q97 0 251 43q185 51 185 114q0 26 -150 26q-236 0 -236 162q0 137 115 297q110 153 239 214q35 16 95 16q127 0 127 -146z" />
<glyph unicode="&#x67e;" horiz-adv-x="1081" arabic-form="final" d="M1100 0h-100q-55 0 -93 39t-55 56q-155 -92 -322 -95l-229 -5q-253 -5 -253 226q0 65 26 161q22 83 28 96q41 89 116 155q11 10 21 10q25 0 25 -41q0 -1 -69.5 -110.5t-69.5 -158.5q0 -100 78 -140q60 -31 271 -31q47 0 176 26q140 28 159 45q11 10 28 109q14 86 47 88 q10 -5 20 -16q10 -30 9 -77q-4 -122 -4 -80q42 -90 147 -90h44v-167zM750 -301l-68 -133l-176 102l70 131zM703 -506l-69 -135l-174 104l70 132zM512 -301l-69 -133l-174 102l67 131z" />
<glyph unicode="&#x67e;" horiz-adv-x="424" arabic-form="initial" d="M394 351q0 -44 -61 -211q-12 -33 -89 -79q-111 -67 -256 -61v167q117 0 127 7q22 2 80 25q95 37 95 77q0 32 -128 155q0 28 12 75q14 56 28 63q23 0 67 -29q125 -81 125 -189zM390 -315l-66 -132l-176 102l70 130zM344 -519l-71 -135l-172 102l69 133zM152 -315l-69 -132 l-173 102l65 130z" />
<glyph unicode="&#x67e;" horiz-adv-x="532" arabic-form="medial" d="M571 0h-114q-110 0 -146 44l-49 58q-69 -102 -274 -102v167q179 0 230 51q9 9 26 90q19 94 23 103q7 17 32 27q8 -5 19 -14q6 -12 6 -37q0 -22 -2.5 -65t-2.5 -65q27 -42 110 -68q72 -22 142 -22v-167zM471 -303l-69 -137l-174 102l69 133zM424 -512l-69 -133l-174 102 l69 131zM230 -303l-66 -137l-176 102l67 133z" />
<glyph unicode="&#x686;" horiz-adv-x="904" arabic-form="final" d="M739 -162l-67 -135l-174 102l67 133zM1102 -547q0 -15 -14 -27q-153 -124 -309 -175q-106 -34 -235 -34q-506 0 -506 526q0 278 188 545l45 64q-27 5 -56 5q-25 0 -61 -16q-40 -18 -50 -38q-7 -10 -23 -25q-19 -1 -19 25q0 124 102 191q53 34 98 34q72 0 215 -23.5 t216 -23.5q24 0 72.5 1.5t72.5 1.5q13 0 20 -3q5 -19 5 -29q0 -25 -21 -70q-24 -50 -45 -49l-228 12q-18 1 -36 -5q11 -91 70 -130q47 -31 147 -40q70 -6 172 -3v-167h-154q-316 0 -316 324q-115 -22 -215 -154q-135 -177 -135 -381q0 -210 168 -316q141 -89 363 -89 q151 0 229 14q90 17 223 74l12 -4q3 -7 5 -15zM692 -369l-67 -133l-176 103l68 130zM500 -162l-69 -135l-174 102l70 133z" />
<glyph unicode="&#x686;" horiz-adv-x="960" arabic-form="initial" d="M929 394q0 -34 -35 -88q-8 -12 -88 -28q-110 -20 -235 -88q-39 -21 -216 -131q-79 -48 -232 -57q-66 -3 -135 -2v167h107q102 0 221 40q127 42 196 106q-83 15 -253 34q-20 3 -23 3q-36 0 -93.5 -47.5t-48.5 -47.5q-7 0 -25 12l-12 30q0 118 98 190q53 39 103 39 q60 0 324 -45h27q14 -4 43 -9q99 -15 139 -15q25 0 65 5q49 6 63 7q10 -25 10 -75zM574 -315l-69 -132l-174 102l68 130zM527 -519l-70 -135l-172 102l68 133zM333 -315l-66 -132l-177 102l69 130z" />
<glyph unicode="&#x686;" horiz-adv-x="1119" arabic-form="medial" d="M1136 0h-176q-165 0 -165 262q-166 -32 -239 -68q-56 -29 -225 -106l-105 -44q-105 -44 -212 -44h-33v167q158 0 262 48l271 128q-106 53 -208 53q-136 0 -163 -65q-12 -30 -29 -30q-13 0 -13 45q0 56 11 84l13 22q62 107 176 107q153 0 351 -73q71 -27 205 -27 q23 0 69 7.5t69 7.5l2 -12q0 -23 -25.5 -84.5t-42.5 -77.5l-15 -10l-56 -9q24 -70 63 -93q34 -21 111 -21h104v-167zM646 -313l-69 -132l-173 102l67 130zM600 -516l-71 -136l-171 102l68 134zM406 -313l-67 -132l-176 102l69 130z" />
<glyph unicode="&#x698;" horiz-adv-x="1060" arabic-form="final" d="M865 550l-69 -131l-174 100l66 133zM671 757l-69 -133l-174 100l68 135zM624 550l-69 -131l-172 100l67 133zM1071 0q-121 0 -262 -57q-178 -72 -297 -163q-69 -54 -268 -207q-62 -48 -114 -48t-91.5 39.5t-39.5 91.5q0 161 200 356q53 52 96 90q5 3 11 4q13 0 13 -17 q-4 -10 -8 -15q-225 -225 -225 -317q0 -77 90 -77q45 0 117 58q24 20 97 81q13 10 142 107q101 76 246 150q177 91 264 91h29v-167z" />
<glyph unicode="&#x6af;" horiz-adv-x="1541" arabic-form="final" d="M1524 1570q0 -36 -35 -91l-431 -178q-115 -48 -246 -106q-10 3 -10 22q0 74 38 91l174 78q80 35 320 137q118 50 186 73q4 -5 4 -26zM1589 1367q0 -64 -37 -123q-92 -36 -452 -188q-85 -36 -253 -111l-8 -14l4 -9l174 -152q65 -56 118 -111q82 -103 110 -144 q51 -77 81 -163q7 -23 29 -87q36 -98 202 -98v-167h-49q-104 0 -156 57q-42 46 -72 154q-8 -63 -44 -102q-68 -74 -376 -154q-256 -67 -504 -67q-301 0 -311 198q-2 49 -2 75q0 213 112 340q51 58 77 58q4 -2 7 -8q-1 -25 -52 -123q-58 -111 -68 -147q-7 -27 -7 -79 q0 -23 31 -75q42 -71 250 -71q158 0 526 94q284 73 284 126q0 62 -95 199q-33 47 -201 189q-154 130 -155 146q-2 31 -2 38q0 115 102 242q171 81 528 231q131 54 199 77q10 -6 10 -31z" />
<glyph unicode="&#x6af;" horiz-adv-x="901" arabic-form="initial" d="M845 1570q0 -35 -36 -90q-227 -91 -678 -285q-8 3 -8 24q0 74 36 90l175 77q57 25 319 137q70 30 187 74q5 -5 5 -27zM885 1352q0 -66 -38 -108q-148 -63 -448 -188q-119 -50 -254 -111l-8 -14l3 -9q167 -141 285 -259q56 -56 108 -151q58 -106 58 -173q0 -149 -58 -225 q-27 -36 -228 -77q-179 -37 -262 -37h-55v167q195 -5 374 41l96 25q44 12 44 43q0 72 -96 198q-41 53 -204 190q-27 22 -97 80q-60 51 -60 103q0 134 103 243q332 156 727 308q10 -7 10 -46z" />
<glyph unicode="&#x6af;" horiz-adv-x="816" arabic-form="medial" d="M845 1564q0 -36 -36 -91q-227 -91 -678 -285q-8 3 -8 23q0 74 36 91l175 78q9 4 319 137q80 34 187 73q5 -5 5 -26zM877 1348q0 -62 -34 -109l-447 -183q-152 -63 -256 -117q0 -4 -1 -7q0 -6 1 -10q256 -304 374 -477l129 -188q40 -59 80 -77q35 -16 110 -13v-167h-45 q-120 0 -200 89q-31 34 -125 195q-15 25 -47 73q-10 -44 -21 -89q-14 -50 -36 -82q-88 -131 -241 -174q-43 -12 -123 -12v167q154 0 268 90q45 36 61 76q10 28 10 86q0 48 -21 75l-155 193q-24 30 -95 132q-4 21 -4 44q0 115 96 227q55 29 181 81t335 142q98 41 194 73 q12 -7 12 -38z" />
<glyph unicode="&#x622;" horiz-adv-x="528" arabic-form="final" d="M558 1321q0 -20 -22 -41l-28 -25q-86 -78 -207 -78q-27 0 -183 30q-3 -1 -21 -3q-53 -6 -153 -95q-1 -3 -4 -3q-16 0 -16 20q0 42 52 102q65 74 179 74q29 0 85 -11t85 -11q38 0 47 5q20 3 95 34l72 29q19 0 19 -27zM540 0h-122q-142 0 -174 252q-39 309 -39 525 q0 27 -11 80.5t-11 80.5q0 143 43 143q26 0 37 -81q30 -228 30 -485q0 -39 34 -200q22 -99 78 -135q20 -13 135 -13v-167z" />
<glyph unicode="&#x623;" horiz-adv-x="431" arabic-form="final" d="M445 0h-88q-137 0 -181 277q-17 105 -24 391q-2 109 -4 227q-1 26 -11 79.5t-10 81.5q0 142 42 142q25 0 29 -22l10 -76q21 -150 25 -310l6 -239q9 -309 105 -371q20 -13 101 -13v-167zM293 1510q0 -24 -20 -60.5t-39 -48.5l-69 -40q-54 -38 -148 -91q-18 -6 -28 30 q25 29 53 79l-61 16q-45 13 -45 90q0 56 77 114q73 56 132 56q13 0 29 -11q3 -5 4 -12q0 -26 -20.5 -63t-43.5 -44q-12 0 -25 17q-34 -6 -44 -10q-25 -9 -35 -27q8 -35 87 -35q29 0 92 23.5t91 23.5q13 0 13 -7z" />
<glyph unicode="&#x624;" horiz-adv-x="902" arabic-form="final" d="M758 852q0 -14 -8 -39q-17 -49 -51 -76q-20 -11 -85 -52q-158 -100 -164 -100q-20 0 -28 24l-2 18q28 26 58 79q-48 -1 -81.5 27t-33.5 75q0 74 79 139q75 63 151 63q14 0 33 -12l5 -12q0 -29 -23.5 -70t-50.5 -49q-12 6 -26 18q-65 3 -86 -41q3 -8 33 -27q33 -9 65 -9 t98 24t97 24q18 0 20 -4zM922 0q-115 0 -127 -1q-4 -3 -8 -5q-38 -105 -160 -230t-226 -163q-56 -20 -145 -20q-200 0 -354 164l-6 15q0 9 9 16q5 0 8 1q6 -2 81 -22q163 -43 249 -43q75 0 112 12q261 84 347 266q-38 -8 -71 -8q-92 0 -155 44q-73 50 -73 138q0 68 72 189 q76 130 137 130t135 -112q49 -74 79 -204h96v-167zM700 175q0 24 -39 76t-61 52q-28 0 -57 -26t-29 -53t36 -48q32 -18 62 -18h19q50 0 66 9q3 3 3 8z" />
<glyph unicode="&#x625;" horiz-adv-x="431" arabic-form="final" d="M445 0h-88q-137 0 -181 277q-17 105 -24 391q-2 109 -4 227q-1 26 -11 79.5t-10 81.5q0 142 42 142q25 0 29 -22l10 -76q21 -150 25 -310l6 -239q9 -309 105 -371q20 -13 101 -13v-167zM519 -341q0 -24 -20 -60.5t-39 -48.5l-69 -40q-54 -38 -148 -91q-18 -6 -28 30 q25 29 53 79l-60 16q-46 13 -46 90q0 56 77 114q73 56 132 56q13 0 29 -11q3 -5 4 -12q0 -26 -20.5 -63t-43.5 -44q-12 0 -25 17q-34 -6 -44 -10q-25 -9 -35 -27q8 -35 87 -35q29 0 92 23.5t91 23.5q13 0 13 -7z" />
<glyph unicode="&#x626;" horiz-adv-x="990" arabic-form="final" d="M1015 0h-62q-102 0 -249 -17q-199 -22 -199 -64q0 -7 8 -23q28 -52 125 -53q291 -5 291 -118q0 -279 -386 -388q-114 -32 -219 -32q-120 0 -198 82t-78 202q0 55 6 111q1 15 22 89.5t26 83.5q70 116 124 140q23 0 23 -36l-63 -108t-63 -156q0 -110 65 -169.5t176 -59.5 q37 0 150 16q73 11 165 48q121 48 121 93q0 27 -150 27q-238 0 -238 171q0 66 51 163q15 29 42 69q40 61 214 79q186 19 296 17v-167zM521 347q0 -19 -19 -53t-36 -44q-37 -22 -192 -118q-18 0 -26 27q21 24 47 71q-55 15 -70 27q-25 20 -25 69q0 51 69 103q66 49 119 49 q11 0 26 -9q2 -5 4 -11q0 -22 -19.5 -56t-39.5 -40q-8 0 -21 14q-30 -4 -41 -7q-21 -7 -30 -25q8 -31 78 -31q29 0 83 20t83 20q10 0 10 -6z" />
<glyph unicode="&#x626;" horiz-adv-x="424" arabic-form="initial" d="M365 912q0 -23 -20 -59t-39 -50q-35 -19 -69 -39q-50 -38 -148 -92q-18 -6 -28 31q25 29 54 78q-63 18 -78 29q-27 22 -27 78q0 58 76 115q71 54 132 54q13 0 30 -11q2 -5 3 -11q0 -27 -20 -62q-21 -38 -45 -46q-11 0 -24 17q-63 -7 -80 -36q10 -36 88 -36q29 0 92 23.5 t91 23.5q12 0 12 -7zM394 351q0 -44 -61 -211q-12 -33 -89 -79q-111 -67 -256 -61v167q117 0 127 7q22 2 80 25q95 37 95 77q0 32 -128 155q0 28 12 75q14 56 28 63q23 0 67 -29q125 -81 125 -189z" />
<glyph unicode="&#x626;" horiz-adv-x="489" arabic-form="medial" d="M403 843q0 -68 -59 -110q-26 -14 -68 -40l-149 -91q-20 0 -28 31q3 15 26.5 41t26.5 38l-60 16q-46 13 -46 90q0 56 77 114q72 54 132 54q15 0 31 -9q1 -5 2 -12q0 -57 -51 -102q-6 -3 -13 -5q-13 0 -24 17q-35 -6 -45 -10q-24 -8 -35 -27q9 -35 88 -35q32 0 91.5 22.5 t90.5 22.5q13 0 13 -5zM516 0h-59q-110 0 -146 44l-49 58q-69 -102 -274 -102v167q179 0 230 51q9 9 26 90q19 94 23 103q7 17 32 27q8 -5 19 -14q6 -12 6 -37q0 -22 -2.5 -65t-2.5 -65q38 -58 84 -76q37 -14 113 -14v-167z" />
<glyph unicode="&#x627;" horiz-adv-x="431" arabic-form="final" d="M445 0h-88q-137 0 -181 277q-17 105 -24 391q-2 109 -4 227q-1 26 -11 79.5t-10 81.5q0 142 42 142q25 0 29 -22l10 -76q21 -150 25 -310l6 -239q9 -309 105 -371q20 -13 101 -13v-167z" />
<glyph unicode="&#x628;" horiz-adv-x="1081" arabic-form="final" d="M1100 0h-100q-55 0 -93 39t-55 56q-155 -92 -322 -95l-229 -5q-253 -5 -253 226q0 65 26 161q22 83 28 96q41 89 116 155q11 10 21 10q25 0 25 -41q0 -1 -69.5 -110.5t-69.5 -158.5q0 -100 78 -140q60 -31 271 -31q47 0 176 26q140 28 159 45q11 10 28 109q14 86 47 88 q10 -5 20 -16q10 -30 9 -77q-4 -122 -4 -80q42 -90 147 -90h44v-167zM632 -303l-69 -135l-174 100l69 136z" />
<glyph unicode="&#x628;" horiz-adv-x="412" arabic-form="initial" d="M394 351q0 -44 -61 -211q-12 -33 -89 -79q-111 -67 -256 -61v167q117 0 127 7q22 2 80 25q95 37 95 77q0 32 -128 155q0 28 12 75q14 56 28 63q23 0 67 -29q125 -81 125 -189zM238 -331l-69 -131l-174 101l67 132z" />
<glyph unicode="&#x628;" horiz-adv-x="486" arabic-form="medial" d="M501 0h-44q-110 0 -146 44l-49 58q-69 -102 -274 -102v167q179 0 230 51q9 9 26 90q19 94 23 103q7 17 32 27q8 -5 19 -14q6 -12 6 -37q0 -22 -2.5 -65t-2.5 -65q59 -90 182 -90v-167zM326 -351l-69 -131l-175 101l70 132z" />
<glyph unicode="&#x629;" horiz-adv-x="827" arabic-form="final" d="M553 1129q0 -26 -21 -65.5t-43.5 -53.5t-77.5 -45q-68 -48 -163 -102q-23 0 -33 34q5 16 30.5 45t29.5 42l-67 18q-50 13 -50 100q0 65 84 128q80 60 147 60q14 0 33 -12q3 -5 4 -12q0 -28 -23.5 -69t-47.5 -51q-12 0 -28 19q-37 -6 -50 -10q-25 -9 -38 -30 q10 -39 98 -39q35 0 101.5 25t101.5 25q13 0 13 -7zM845 0h-50q-152 0 -229 65q-51 44 -133 202q-7 -24 -24 -62q-10 -25 -123 -47q-95 -18 -146 -18q-84 0 -84 54q0 13 12 55q19 67 63 110q21 22 103 79l167 117q-4 82 7 98l16 90q6 34 33 34q7 0 15 -14q4 -100 22 -298 q4 -17 13 -49q47 -169 151 -223q50 -26 187 -26v-167zM424 340q-4 38 -15 86q-25 -7 -189 -102l6 -16l14 -5q77 10 184 37z" />
<glyph unicode="&#x62a;" horiz-adv-x="1081" arabic-form="final" d="M790 814l-66 -132l-177 100l69 134zM552 814l-69 -132l-172 100l65 134zM1100 0h-100q-55 0 -93 39t-55 56q-155 -92 -322 -95l-229 -5q-253 -5 -253 226q0 65 26 161q22 83 28 96q41 89 116 155q11 10 21 10q25 0 25 -41q0 -1 -69.5 -110.5t-69.5 -158.5q0 -100 78 -140 q60 -31 271 -31q47 0 176 26q140 28 159 45q11 10 28 109q14 86 47 88q10 -5 20 -16q10 -30 9 -77q-4 -122 -4 -80q42 -90 147 -90h44v-167z" />
<glyph unicode="&#x62a;" horiz-adv-x="412" arabic-form="initial" d="M390 797l-66 -131l-176 99l70 135zM152 797l-69 -131l-173 99l65 135zM394 351q0 -44 -61 -211q-12 -33 -89 -79q-111 -67 -256 -61v167q117 0 127 7q22 2 80 25q95 37 95 77q0 32 -128 155q0 28 12 75q14 56 28 63q23 0 67 -29q125 -81 125 -189z" />
<glyph unicode="&#x62a;" horiz-adv-x="486" arabic-form="medial" d="M390 695l-66 -133l-176 100l70 135zM152 695l-69 -133l-173 100l65 135zM501 0h-44q-110 0 -146 44l-49 58q-69 -102 -274 -102v167q179 0 230 51q9 9 26 90q19 94 23 103q7 17 32 27q8 -5 19 -14q6 -12 6 -37q0 -22 -2.5 -65t-2.5 -65q59 -90 182 -90v-167z" />
<glyph unicode="&#x62b;" horiz-adv-x="1081" arabic-form="final" d="M809 809l-69 -134l-174 100l67 137zM614 1013l-68 -130l-173 100l69 132zM569 809l-68 -134l-175 100l68 137zM1102 0h-102q-55 0 -93 39t-55 56q-155 -92 -322 -95l-229 -5q-253 -5 -253 226q0 65 26 161q22 83 28 96q41 89 116 155q11 10 21 10q25 0 25 -41 q0 -1 -69.5 -110.5t-69.5 -158.5q0 -100 78 -140q60 -31 271 -31q47 0 176 26q140 28 159 45q11 10 28 109q14 86 47 88q10 -5 20 -16q10 -30 9 -77q-4 -122 -4 -80q42 -90 147 -90h46v-167z" />
<glyph unicode="&#x62b;" horiz-adv-x="401" arabic-form="initial" d="M390 797l-66 -131l-176 99l70 135zM199 1002l-69 -132l-174 100l69 134zM152 797l-69 -131l-173 99l65 135zM394 351q0 -44 -61 -211q-12 -33 -89 -79q-111 -67 -256 -61v167q117 0 127 7q22 2 80 25q95 37 95 77q0 32 -128 155q0 28 12 75q14 56 28 63q23 0 67 -29 q125 -81 125 -189z" />
<glyph unicode="&#x62b;" horiz-adv-x="486" arabic-form="medial" d="M406 675l-68 -130l-176 100l69 134zM213 883l-69 -131l-173 100l69 133zM167 675l-69 -130l-174 100l66 134zM501 0h-44q-110 0 -146 44l-49 58q-69 -102 -274 -102v167q179 0 230 51q9 9 26 90q19 94 23 103q7 17 32 27q8 -5 19 -14q6 -12 6 -37q0 -22 -2.5 -65 t-2.5 -65q59 -90 182 -90v-167z" />
<glyph unicode="&#x62c;" horiz-adv-x="904" arabic-form="final" d="M1102 -547q0 -15 -14 -27q-153 -124 -309 -175q-106 -34 -235 -34q-506 0 -506 526q0 278 188 545l45 64q-27 5 -56 5q-25 0 -61 -16q-40 -18 -50 -38q-7 -10 -23 -25q-19 -1 -19 25q0 124 102 191q53 34 98 34q72 0 215 -23.5t216 -23.5q24 0 72.5 1.5t72.5 1.5 q13 0 20 -3q5 -19 5 -29q0 -25 -21 -70q-24 -50 -45 -49l-228 12q-18 1 -36 -5q11 -91 70 -130q47 -31 147 -40q70 -6 172 -3v-167h-154q-316 0 -316 324q-115 -22 -215 -154q-135 -177 -135 -381q0 -210 168 -316q141 -89 363 -89q151 0 229 14q90 17 223 74l12 -4 q3 -7 5 -15zM697 -257l-69 -131l-173 100l69 133z" />
<glyph unicode="&#x62c;" horiz-adv-x="960" arabic-form="initial" d="M929 394q0 -34 -35 -88q-8 -12 -88 -28q-110 -20 -235 -88q-39 -21 -216 -131q-79 -48 -232 -57q-66 -3 -135 -2v167h107q102 0 221 40q127 42 196 106q-83 15 -253 34q-20 3 -23 3q-36 0 -93.5 -47.5t-48.5 -47.5q-7 0 -25 12l-12 30q0 118 98 190q53 39 103 39 q60 0 324 -45h27q14 -4 43 -9q99 -15 139 -15q25 0 65 5q49 6 63 7q10 -25 10 -75zM471 -371l-70 -131l-173 101l69 132z" />
<glyph unicode="&#x62c;" horiz-adv-x="1119" arabic-form="medial" d="M1128 0h-168q-165 0 -165 262q-166 -32 -239 -68q-56 -29 -225 -106l-105 -44q-105 -44 -212 -44h-33v167q158 0 262 48l271 128q-106 53 -208 53q-136 0 -163 -65q-12 -30 -29 -30q-13 0 -13 45q0 56 11 84l13 22q62 107 176 107q153 0 351 -73q71 -27 205 -27 q23 0 69 7.5t69 7.5l2 -12q0 -23 -25.5 -84.5t-42.5 -77.5l-15 -10l-56 -9q38 -117 171 -117q17 0 50 1.5t49 1.5v-167zM709 -359l-69 -130l-174 99l67 133z" />
<glyph unicode="&#x62d;" horiz-adv-x="904" arabic-form="final" d="M1102 -547q0 -15 -14 -27q-153 -124 -309 -175q-106 -34 -235 -34q-506 0 -506 526q0 278 188 545l45 64q-27 5 -56 5q-25 0 -61 -16q-40 -18 -50 -38q-7 -10 -23 -25q-19 -1 -19 25q0 124 102 191q53 34 98 34q72 0 215 -23.5t216 -23.5q24 0 72.5 1.5t72.5 1.5 q13 0 20 -3q5 -19 5 -29q0 -25 -21 -70q-24 -50 -45 -49l-228 12q-18 1 -36 -5q11 -91 70 -130q47 -32 147 -40q71 -6 175 -3v-167h-157q-316 0 -316 324q-115 -22 -215 -154q-135 -177 -135 -381q0 -210 168 -316q141 -89 363 -89q151 0 229 14q90 17 223 74l12 -4 q3 -7 5 -15z" />
<glyph unicode="&#x62d;" horiz-adv-x="960" arabic-form="initial" d="M929 394q0 -34 -35 -88q-8 -12 -88 -28q-110 -20 -235 -88q-39 -21 -216 -131q-79 -48 -232 -57q-66 -3 -135 -2v167h107q102 0 221 40q127 42 196 106q-83 15 -253 34q-20 3 -23 3q-36 0 -93.5 -47.5t-48.5 -47.5q-7 0 -25 12l-12 30q0 118 98 190q53 39 103 39 q60 0 324 -45h27q14 -4 43 -9q99 -15 139 -15q25 0 65 5q49 6 63 7q10 -25 10 -75z" />
<glyph unicode="&#x62d;" horiz-adv-x="1119" arabic-form="medial" d="M1136 0h-176q-165 0 -165 262q-166 -32 -239 -68q-56 -29 -225 -106l-105 -44q-105 -44 -212 -44h-33v167q158 0 262 48l271 128q-106 53 -208 53q-136 0 -163 -65q-12 -30 -29 -30q-13 0 -13 45q0 56 11 84l13 22q62 107 176 107q153 0 351 -73q71 -27 205 -27 q23 0 69 7.5t69 7.5l2 -12q0 -23 -25.5 -84.5t-42.5 -77.5l-15 -10l-56 -9q24 -70 63 -93q34 -21 111 -21h104v-167z" />
<glyph unicode="&#x62e;" horiz-adv-x="904" arabic-form="final" d="M486 857l-70 -131l-173 100l70 132zM1102 -547q0 -15 -14 -27q-153 -124 -309 -175q-106 -34 -235 -34q-506 0 -506 526q0 278 188 545l45 64q-27 5 -56 5q-25 0 -61 -16q-40 -18 -50 -38q-7 -10 -23 -25q-19 -1 -19 25q0 124 102 191q53 34 98 34q72 0 215 -23.5 t216 -23.5q24 0 72.5 1.5t72.5 1.5q13 0 20 -3q5 -19 5 -29q0 -25 -21 -70q-24 -50 -45 -49l-228 12q-18 1 -36 -5q11 -91 70 -130q47 -31 147 -40q70 -6 170 -3v-167h-152q-316 0 -316 324q-115 -22 -215 -154q-135 -177 -135 -381q0 -210 168 -316q141 -89 363 -89 q151 0 229 14q90 17 223 74l12 -4q3 -7 5 -15z" />
<glyph unicode="&#x62e;" horiz-adv-x="960" arabic-form="initial" d="M238 947l-69 -131l-174 100l67 135zM929 394q0 -34 -35 -88q-8 -12 -88 -28q-110 -20 -235 -88q-39 -21 -216 -131q-79 -48 -232 -57q-66 -3 -135 -2v167h107q102 0 221 40q127 42 196 106q-83 15 -253 34q-20 3 -23 3q-36 0 -93.5 -47.5t-48.5 -47.5q-7 0 -25 12l-12 30 q0 118 98 190q53 39 103 39q60 0 324 -45h27q14 -4 43 -9q99 -15 139 -15q25 0 65 5q49 6 63 7q10 -25 10 -75z" />
<glyph unicode="&#x62e;" horiz-adv-x="1119" arabic-form="medial" d="M447 981l-66 -134l-176 100l69 136zM1135 -1l-175 1q-165 1 -165 262q-166 -32 -239 -68q-56 -29 -225 -106l-105 -44q-105 -44 -212 -44h-33v167q158 0 262 48l271 128q-106 53 -208 53q-136 0 -163 -65q-12 -30 -29 -30q-13 0 -13 45q0 56 11 84l13 22q62 107 176 107 q153 0 351 -73q71 -27 205 -27q23 0 69 7.5t69 7.5l2 -12q0 -23 -25.5 -84.5t-42.5 -77.5l-15 -10l-56 -9q31 -94 108 -111l169 -5v-166z" />
<glyph unicode="&#x62f;" horiz-adv-x="757" arabic-form="final" d="M771 0h-47q-49 0 -90 55l-54 94q-9 14 -33 51q-205 -183 -357 -183q-70 0 -88 46q-8 22 -8 106q0 68 24 68q12 0 20 -13q12 -19 14 -21q16 -29 59 -29q76 0 165 45q86 43 136 105q-38 92 -118 278q11 57 11 63q11 45 33 51q25 -36 145 -317q99 -232 150 -232h38v-167z " />
<glyph unicode="&#x630;" horiz-adv-x="757" arabic-form="final" d="M326 1038l-69 -134l-174 100l69 135zM771 0h-47q-49 0 -90 55l-54 94q-9 14 -33 51q-205 -183 -357 -183q-70 0 -88 46q-8 22 -8 106q0 68 24 68q12 0 20 -13q12 -19 14 -21q16 -29 59 -29q76 0 165 45q86 43 136 105q-38 92 -118 278q11 57 11 63q11 45 33 51 q25 -36 145 -317q99 -232 150 -232h38v-167z" />
<glyph unicode="&#x631;" horiz-adv-x="1060" arabic-form="final" d="M1071 0q-121 0 -262 -57q-178 -72 -297 -163q-69 -54 -268 -207q-62 -48 -114 -48t-91.5 39.5t-39.5 91.5q0 161 200 356q53 52 96 90q5 3 11 4q13 0 13 -17q-4 -10 -8 -15q-225 -225 -225 -317q0 -77 90 -77q45 0 117 58q24 20 97 81q13 10 142 107q101 76 246 150 q177 91 264 91h29v-167z" />
<glyph unicode="&#x632;" horiz-adv-x="1060" arabic-form="final" d="M675 531l-66 -132l-176 102l69 132zM1071 0q-121 0 -262 -57q-178 -72 -297 -163q-69 -54 -268 -207q-62 -48 -114 -48t-91.5 39.5t-39.5 91.5q0 161 200 356q53 52 96 90q5 3 11 4q13 0 13 -17q-4 -10 -8 -15q-225 -225 -225 -317q0 -77 90 -77q45 0 117 58q24 20 97 81 q13 10 142 107q101 76 246 150q177 91 264 91h29v-167z" />
<glyph unicode="&#x633;" horiz-adv-x="1504" arabic-form="final" d="M1526 0h-161q-32 0 -94 17q-42 -12 -76 -12q-74 0 -98 30q-56 -36 -231 -36q-66 0 -91 11q-15 -111 -47 -158q-48 -70 -200 -136q-145 -63 -238 -63q-153 0 -221 85q-42 53 -42 150q0 144 63 246q56 91 184 177q9 -8 9 -42q0 -19 -7 -51l-96 -111q-50 -58 -78 -124 q10 -79 71 -124q57 -42 140 -42q70 0 228 66q173 73 173 131q0 53 -83 210q12 52 44 123l7 3q43 -1 106 -183q91 -5 109 -5q155 0 229 58q34 123 62 123q23 0 23 -37q0 -16 -5.5 -46.5t-5.5 -46.5q0 -24 8 -37l6 -2h15q40 0 44 7q17 4 39 80t39 76q23 0 25 -38q-3 68 -3 -56 q0 -11 11 -62q19 -17 142 -14v-167z" />
<glyph unicode="&#x633;" horiz-adv-x="945" arabic-form="initial" d="M914 315q-1 -40 -13 -115q-10 -34 -13 -51q-2 -7 -22 -44q-57 -107 -150 -107q-40 0 -83 37q-46 -30 -224 -30h-165q-39 0 -87 12q-48 -19 -169 -17v167q230 0 255 53l21 47q30 100 60 100q12 0 23 -15q3 -13 3 -27q0 -25 -5 -32q-21 -92 -19 -126q94 -5 115 -5 q143 0 221 58q35 123 62 123q25 0 25 -40q0 -15 -6 -46t-6 -46q0 -13 8 -35l23 -2q39 0 65 28q10 28 27 111q5 24 29 24q15 0 25 -22z" />
<glyph unicode="&#x633;" horiz-adv-x="1042" arabic-form="medial" d="M1064 0h-142q-41 0 -113 17q7 -3 7 -5q-1 -7 -115 -7q-27 0 -68 30q-46 -30 -224 -30h-165q-39 0 -87 12q-48 -19 -169 -17v167q230 0 255 53l21 47q30 100 60 100q12 0 23 -15q3 -13 3 -27q0 -25 -5 -32q-21 -92 -19 -126q94 -5 115 -5q143 0 221 58q35 123 62 123 q25 0 25 -40q0 -15 -6 -46t-6 -46q0 -13 8 -35l23 -2q39 0 65 28q10 28 27 111q5 24 29 24q15 0 25 -22q-2 -26 -2 -72q0 -36 10 -62q17 -17 142 -14v-167z" />
<glyph unicode="&#x634;" horiz-adv-x="1504" arabic-form="final" d="M1266 765l-70 -132l-173 100l68 135zM1082 970l-69 -130l-174 100l69 133zM1025 765l-69 -132l-173 100l69 135zM1523 0h-158q-32 0 -94 17q-42 -12 -76 -12q-74 0 -98 30q-56 -36 -231 -36q-66 0 -91 11q-15 -111 -47 -158q-48 -70 -200 -136q-145 -63 -238 -63 q-153 0 -221 85q-42 53 -42 150q0 144 63 246q56 91 184 177q9 -8 9 -42q0 -19 -7 -51l-96 -111q-50 -58 -78 -124q10 -79 71 -124q57 -42 140 -42q70 0 228 66q173 73 173 131q0 53 -83 210q12 52 44 123l7 3q43 -1 106 -183q91 -5 109 -5q155 0 229 58q34 123 62 123 q23 0 23 -37q0 -16 -5.5 -46.5t-5.5 -46.5q0 -24 8 -37l6 -2h15q40 0 44 7q17 4 39 80t39 76q23 0 25 -38q-3 68 -3 -56q0 -11 11 -62q19 -17 139 -14v-167z" />
<glyph unicode="&#x634;" horiz-adv-x="945" arabic-form="initial" d="M821 733l-69 -131l-174 100l69 136zM639 940l-69 -131l-173 100l66 133zM580 733l-66 -131l-176 100l70 136zM914 315q-1 -40 -13 -115q-10 -34 -13 -51q-2 -7 -22 -44q-57 -107 -150 -107q-40 0 -83 37q-46 -30 -224 -30h-165q-39 0 -87 12q-48 -19 -169 -17v167 q230 0 255 53l21 47q30 100 60 100q12 0 23 -15q3 -13 3 -27q0 -25 -5 -32q-21 -92 -19 -126q94 -5 115 -5q143 0 221 58q35 123 62 123q25 0 25 -40q0 -15 -6 -46t-6 -46q0 -13 8 -35l23 -2q39 0 65 28q10 28 27 111q5 24 29 24q15 0 25 -22z" />
<glyph unicode="&#x634;" horiz-adv-x="1042" arabic-form="medial" d="M821 733l-69 -131l-174 100l69 136zM639 940l-69 -131l-173 100l66 133zM580 733l-66 -131l-176 100l70 136zM1061 0h-139q-41 0 -113 17q7 -3 7 -5q-1 -7 -115 -7q-27 0 -68 30q-46 -30 -224 -30h-165q-39 0 -87 12q-48 -19 -169 -17v167q230 0 255 53l21 47 q30 100 60 100q12 0 23 -15q3 -13 3 -27q0 -25 -5 -32q-21 -92 -19 -126q94 -5 115 -5q143 0 221 58q35 123 62 123q25 0 25 -40q0 -15 -6 -46t-6 -46q0 -13 8 -35l23 -2q39 0 65 28q10 28 27 111q5 24 29 24q15 0 25 -22q-2 -26 -2 -72q0 -36 10 -62q17 -17 139 -14v-167z " />
<glyph unicode="&#x635;" horiz-adv-x="1884" arabic-form="final" d="M1903 0q-56 1 -142 -4q-107 -6 -143 -6q-129 0 -203 29q-11 -17 -125 -25q-131 -9 -239 -9h-24q7 0 -152 7q-28 1 -85 18q-19 -94 -47 -141q-42 -68 -200 -136q-150 -64 -237 -64q-163 0 -223 87q-43 63 -43 149q0 44 19 123q20 83 40.5 116.5t93.5 106.5q65 66 95 75 q9 -6 9 -39q0 -25 -7 -54q-63 -70 -96 -110q-54 -67 -79 -123q23 -167 211 -167q71 0 230 67q172 73 172 132q0 64 -65 179q-7 9 -18 29q27 128 54 128q2 0 5 -1q55 -43 98 -184q43 -14 131 -14l18 2q46 56 102 115q48 50 212 164q171 119 211 119q108 0 203 -63 q106 -70 106 -173q0 -16 -56 -162q7 -12 31 -12q21 0 71 5q46 4 72 3v-167zM1665 288q-12 24 -79 59q-95 52 -164 52q-38 0 -175 -97q-130 -92 -159 -133q29 -12 182 -12q110 0 258 46q137 43 137 85z" />
<glyph unicode="&#x635;" horiz-adv-x="1203" arabic-form="initial" d="M1183 333q0 -13 -55 -162q-63 -63 -139 -103q-101 -54 -163 -63q-101 -16 -293 -16q-163 0 -190 11q-88 -115 -155 -255q-1 -1 -4 -1q-8 0 -17 25q17 66 102 245q-52 32 -86 98q-71 -99 -134 -111q-19 -3 -61 -1v167q147 0 167 78q7 35 29 105q5 5 24 15q7 0 18 -13 q2 -21 11 -62q26 -73 134 -114q37 45 116 125q336 268 398 268q98 0 193 -68q105 -75 105 -168zM1060 288q0 6 -38 34q-102 77 -199 77q-39 0 -176 -97q-128 -90 -166 -135q43 -10 122 -10h61q115 0 259 46q137 45 137 85z" />
<glyph unicode="&#x635;" horiz-adv-x="1276" arabic-form="medial" d="M1301 0q-46 2 -134.5 -6t-132.5 -8q-162 0 -225 39q-7 -18 -146 -20l-320 -5q-125 -162 -195 -324h-5q-9 0 -16 24q22 82 142 314q-52 32 -86 98q-71 -99 -134 -111q-19 -3 -61 -1v167q147 0 167 78q7 35 29 105q5 5 24 15q7 0 18 -13q14 -77 31 -106q24 -40 86 -60 q139 139 326 269q164 114 216 114q98 0 193 -68q105 -75 105 -168q0 -13 -55 -162q7 -12 30 -12q21 0 71 5q46 4 72 3v-167zM1060 288q0 6 -38 34q-102 77 -199 77q-40 0 -177 -96q-132 -91 -160 -134q40 -12 182 -12q76 0 220 37q172 44 172 94z" />
<glyph unicode="&#x636;" horiz-adv-x="1884" arabic-form="final" d="M1555 885l-70 -131l-172 100l69 134zM1903 0q-56 1 -142 -4q-107 -6 -143 -6q-129 0 -203 29q-11 -17 -125 -25q-131 -9 -239 -9h-24q7 0 -152 7q-28 1 -85 18q-19 -94 -47 -141q-42 -68 -200 -136q-150 -64 -237 -64q-163 0 -223 87q-43 63 -43 149q0 44 19 123 q20 83 40.5 116.5t93.5 106.5q65 66 95 75q9 -6 9 -39q0 -25 -7 -54q-63 -70 -96 -110q-54 -67 -79 -123q23 -167 211 -167q71 0 230 67q172 73 172 132q0 64 -65 179q-7 9 -18 29q27 128 54 128q2 0 5 -1q55 -43 98 -184q43 -14 131 -14l18 2q46 56 102 115q48 50 212 164 q171 119 211 119q108 0 203 -63q106 -70 106 -173q0 -16 -56 -162q7 -12 31 -12q21 0 71 5q46 4 72 3v-167zM1665 288q-12 24 -79 59q-95 52 -164 52q-38 0 -175 -97q-130 -92 -159 -133q29 -12 182 -12q110 0 258 46q137 43 137 85z" />
<glyph unicode="&#x636;" horiz-adv-x="1203" arabic-form="initial" d="M944 925l-69 -130l-174 100l69 133zM1183 333q0 -13 -55 -162q-63 -63 -139 -103q-101 -54 -163 -63q-101 -16 -293 -16q-163 0 -190 11q-88 -115 -155 -255q-1 -1 -4 -1q-8 0 -17 25q17 66 102 245q-52 32 -86 98q-71 -99 -134 -111q-19 -3 -61 -1v167q147 0 167 78 q7 35 29 105q5 5 24 15q7 0 18 -13q2 -21 11 -62q26 -73 134 -114q37 45 116 125q336 268 398 268q98 0 193 -68q105 -75 105 -168zM1060 288q0 6 -38 34q-102 77 -199 77q-39 0 -176 -97q-128 -90 -166 -135q43 -10 122 -10h61q115 0 259 46q137 45 137 85z" />
<glyph unicode="&#x636;" horiz-adv-x="1276" arabic-form="medial" d="M944 925l-69 -130l-174 100l69 133zM1290 0q-43 2 -127 -6q-87 -8 -129 -8q-162 0 -225 39q-7 -18 -146 -20l-320 -5q-125 -162 -195 -324h-5q-9 0 -16 24q22 82 142 314q-52 32 -86 98q-71 -99 -134 -111q-19 -3 -61 -1v167q147 0 167 78q7 35 29 105q5 5 24 15 q7 0 18 -13q14 -77 31 -106q24 -40 86 -60q139 139 326 269q164 114 216 114q98 0 193 -68q105 -75 105 -168q0 -13 -55 -162q7 -12 30 -12q19 0 66 5q42 4 66 3v-167zM1060 288q0 6 -38 34q-102 77 -199 77q-40 0 -177 -96q-132 -91 -160 -134q40 -12 182 -12q76 0 220 37 q172 44 172 94z" />
<glyph unicode="&#x637;" horiz-adv-x="1197" arabic-form="final" d="M1216 0q-62 1 -157 -4q-119 -6 -157 -6q-96 0 -117 10l-31 14q-128 -24 -382 -24q-70 0 -98 10l-159 -256q-8 0 -17 25q23 76 107 245q-37 4 -102 59t-65 89q0 6 19 15q66 -13 94 -13q39 0 144 -2q17 13 50 53v104q0 34 -19 124l-55 258q-16 79 -16 126q-18 19 -50 61 l-5 53q0 145 32 205l35 64q4 3 11 4q22 0 19 -16l-17 -131q-9 -64 114 -76q21 -7 21 -35q0 -43 -48 -144q-5 -10 -22 -15q1 -13 30 -129q51 -208 45 -316l-4 -66q11 13 166 138q180 145 234 145q98 0 193 -68q104 -74 104 -168q0 -53 -67 -162q6 -10 29 -10q20 0 70 3 q45 4 71 3v-167zM995 288q-8 18 -39 36q-129 75 -202 75q-38 0 -182 -100q-137 -96 -166 -137h185q9 2 21 5q56 0 112 7q270 34 271 114z" />
<glyph unicode="&#x637;" horiz-adv-x="1060" arabic-form="initial" d="M1038 333q0 -20 -21 -66q-33 -76 -59 -106q-33 -38 -100 -73q-52 -27 -83 -40q-86 -37 -142 -46q-9 -1 -137 -4q-14 -1 -52 -3q-32 -2 -51 -2q-68 0 -195 7q-103 -134 -155 -255l-3 -1q-7 4 -21 25q18 61 106 231h-137v167q33 0 99 -1.5t99 -1.5q22 0 32 3q16 11 51 48 v104q0 71 -33 214q-24 108 -49 216q-11 58 -11 78q-21 25 -42 51q-11 20 -11 69q0 98 21 174q6 14 25 56q8 18 19 33q5 3 12 4q6 0 13 -4l7 -12q-7 -46 -18 -160q-2 -29 67 -41q10 -2 49 -7q20 -8 20 -43q0 -14 -21 -70t-30 -66.5t-18 -13.5q2 -29 50 -220q20 -81 24 -230 q1 -51 -3 -61q6 6 166 138q177 145 234 145q98 0 193 -68q105 -75 105 -168zM916 288q0 6 -39 34q-104 77 -202 77q-37 0 -180 -100q-138 -97 -167 -137h159q19 3 46 5q16 0 58 2q81 5 177 30q148 38 148 89z" />
<glyph unicode="&#x637;" horiz-adv-x="1119" arabic-form="medial" d="M1135 0q-58 1 -149 -4q-113 -6 -148 -6q-116 0 -135 10l-28 14q-63 -14 -235 -14h-242l-158 -256q-7 4 -21 25q18 61 106 231h-137v167q33 0 99 -1.5t99 -1.5q22 0 32 3q16 11 51 48v104q0 71 -33 214q-24 108 -49 216q-11 58 -11 78q-21 25 -42 51q-11 20 -11 69 q0 98 21 174q6 14 25 56q8 18 19 33q5 3 12 4q6 0 13 -4l7 -12q-7 -46 -18 -160q-2 -29 67 -41q10 -2 49 -7q20 -8 20 -43q0 -14 -21 -70t-30 -66.5t-18 -13.5q2 -29 50 -220q20 -81 24 -230q1 -51 -3 -61q6 6 166 138q177 145 234 145q92 0 191 -67q107 -72 107 -160 q0 -79 -68 -171q6 -10 30 -10q19 0 67 3q43 4 68 3v-167zM916 288q0 6 -39 34q-104 77 -202 77q-37 0 -180 -100q-138 -97 -167 -137h159q19 3 46 5q16 0 58 2q81 5 177 30q148 38 148 89z" />
<glyph unicode="&#x638;" horiz-adv-x="1197" arabic-form="final" d="M860 872l-65 -129l-176 100l68 133zM1214 0q-62 1 -156 -4q-118 -6 -156 -6q-96 0 -117 10l-31 14q-128 -24 -382 -24q-70 0 -98 10l-159 -256q-8 0 -17 25q23 76 107 245q-37 4 -102 59t-65 89q0 6 19 15q66 -13 94 -13q39 0 144 -2q17 13 50 53v104q0 34 -19 124 l-55 258q-16 79 -16 126q-18 19 -50 61l-5 53q0 145 32 205l35 64q4 3 11 4q22 0 19 -16l-17 -131q-9 -64 114 -76q21 -7 21 -35q0 -43 -48 -144q-5 -10 -22 -15q1 -13 30 -129q51 -208 45 -316l-4 -66q11 13 166 138q180 145 234 145q98 0 193 -68q104 -74 104 -168 q0 -53 -67 -162q6 -10 29 -10q19 0 69 3q44 4 70 3v-167zM995 288q-8 18 -39 36q-129 75 -202 75q-38 0 -182 -100q-137 -96 -166 -137h185q9 2 21 5q56 0 112 7q270 34 271 114z" />
<glyph unicode="&#x638;" horiz-adv-x="1060" arabic-form="initial" d="M738 845l-69 -131l-175 100l68 133zM1038 333q0 -20 -21 -66q-33 -76 -59 -106q-33 -38 -100 -73q-52 -27 -83 -40q-86 -37 -142 -46q-9 -1 -137 -4q-14 -1 -52 -3q-32 -2 -51 -2q-68 0 -195 7q-103 -134 -155 -255l-3 -1q-7 4 -21 25q18 61 106 231h-137v167 q33 0 99 -1.5t99 -1.5q22 0 32 3q16 11 51 48v104q0 71 -33 214q-24 108 -49 216q-11 58 -11 78q-21 25 -42 51q-11 20 -11 69q0 98 21 174q6 14 25 56q8 18 19 33q5 3 12 4q6 0 13 -4l7 -12q-7 -46 -18 -160q-2 -29 67 -41q10 -2 49 -7q20 -8 20 -43q0 -14 -21 -70 t-30 -66.5t-18 -13.5q2 -29 50 -220q20 -81 24 -230q1 -51 -3 -61q6 6 166 138q177 145 234 145q98 0 193 -68q105 -75 105 -168zM916 288q0 6 -39 34q-104 77 -202 77q-37 0 -180 -100q-138 -97 -167 -137h159q19 3 46 5q16 0 58 2q81 5 177 30q148 38 148 89z" />
<glyph unicode="&#x638;" horiz-adv-x="1119" arabic-form="medial" d="M785 872l-69 -129l-173 100l69 133zM1135 0q-58 1 -149 -4q-113 -6 -148 -6q-116 0 -135 10l-28 14q-63 -14 -235 -14h-242l-158 -256q-7 4 -21 25q18 61 106 231h-137v167q33 0 99 -1.5t99 -1.5q22 0 32 3q16 11 51 48v104q0 71 -33 214q-24 108 -49 216q-11 58 -11 78 q-21 25 -42 51q-11 20 -11 69q0 98 21 174q6 14 25 56q8 18 19 33q5 3 12 4q6 0 13 -4l7 -12q-7 -46 -18 -160q-2 -29 67 -41q10 -2 49 -7q20 -8 20 -43q0 -14 -21 -70t-30 -66.5t-18 -13.5q2 -29 50 -220q20 -81 24 -230q1 -51 -3 -61q6 6 166 138q177 145 234 145 q92 0 191 -67q107 -72 107 -160q0 -79 -68 -171q6 -10 30 -10q19 0 67 3q43 4 68 3v-167zM916 288q0 6 -39 34q-104 77 -202 77q-37 0 -180 -100q-138 -97 -167 -137h159q19 3 46 5q16 0 58 2q81 5 177 30q148 38 148 89z" />
<glyph unicode="&#x639;" horiz-adv-x="866" arabic-form="final" d="M1085 -501q0 -6 -14 -27q-146 -105 -245 -149q-136 -61 -280 -61q-527 0 -527 539q0 109 57 279q58 174 124 253q-11 14 -33 14q-5 0 -14.5 -2.5t-14.5 -2.5q-23 0 -23 27q0 115 56 171q44 44 203 44q60 0 183 -29q5 -2 11 -11l3 -28q0 -24 -15 -77q-12 -38 -24.5 -50.5 t-50.5 -21.5t-95 -34q75 -124 197 -153q54 -13 342 -13v-167h-173q-108 0 -150 8q-156 31 -238 170l-63 108q-220 -203 -220 -448q0 -210 171 -319q143 -90 363 -90q183 0 311 31q12 3 81 32q61 26 66 26q12 0 12 -19z" />
<glyph unicode="&#x639;" horiz-adv-x="857" arabic-form="initial" d="M838 355q0 -39 -34 -110q-8 -18 -122 -58l-118 -42q-38 -12 -150 -50q-40 -14 -152 -56q-81 -29 -158 -38q-22 -2 -116 -1v167h102q56 0 93 33q-81 88 -81 150q0 34 28 96q65 147 167 218q56 38 89 38q115 0 219 -90q47 -42 47 -54q0 -18 -19.5 -37.5t-37.5 -19.5 q-1 0 -60.5 30.5t-91.5 30.5q-58 0 -126.5 -46t-96.5 -100q17 -59 112 -96q74 -28 146 -28q49 0 351 107q9 -9 9 -44z" />
<glyph unicode="&#x639;" horiz-adv-x="600" arabic-form="medial" d="M615 -1q-113 1 -141 7q-41 9 -136 61q-218 -67 -279 -67h-71v167q188 0 250 31v20q-13 9 -127 43q-106 31 -106 36q0 86 14 118q4 8 16 28q7 12 66 26q50 12 75 12q117 0 181 -26q99 -41 112 -127q3 -23 3 -40q0 6 -17 -90q6 -31 160 -31v-168z" />
<glyph unicode="&#x63a;" horiz-adv-x="877" arabic-form="final" d="M367 976l-70 -131l-172 100l65 136zM1085 -501q0 -6 -14 -27q-146 -105 -245 -149q-136 -61 -280 -61q-527 0 -527 539q0 109 57 279q58 174 124 253q-11 14 -33 14q-5 0 -14.5 -2.5t-14.5 -2.5q-23 0 -23 27q0 115 56 171q44 44 203 44q60 0 183 -29q5 -2 11 -11l3 -28 q0 -24 -15 -77q-12 -38 -24.5 -50.5t-50.5 -21.5t-95 -34q75 -124 197 -153q54 -13 342 -13v-167h-173q-108 0 -150 8q-156 31 -238 170l-63 108q-220 -203 -220 -448q0 -210 171 -319q143 -90 363 -90q183 0 311 31q12 3 81 32q61 26 66 26q12 0 12 -19z" />
<glyph unicode="&#x63a;" horiz-adv-x="857" arabic-form="initial" d="M313 1017l-70 -129l-174 100l69 135zM838 355q0 -39 -34 -110q-8 -18 -122 -58l-118 -42q-38 -12 -150 -50q-40 -14 -152 -56q-81 -29 -158 -38q-22 -2 -116 -1v167h102q56 0 93 33q-81 88 -81 150q0 34 28 96q65 147 167 218q56 38 89 38q115 0 219 -90q47 -42 47 -54 q0 -18 -19.5 -37.5t-37.5 -19.5q-1 0 -60.5 30.5t-91.5 30.5q-58 0 -126.5 -46t-96.5 -100q17 -59 112 -96q74 -28 146 -28q49 0 351 107q9 -9 9 -44z" />
<glyph unicode="&#x63a;" horiz-adv-x="600" arabic-form="medial" d="M254 894l-70 -130l-172 100l66 132zM616 -1q-115 1 -142 7q-38 8 -136 61q-218 -67 -279 -67h-71v167q188 0 250 31v20q-13 9 -127 43q-106 31 -106 36q0 86 14 118q4 8 16 28q7 12 66 26q50 12 75 12q117 0 181 -26q99 -41 112 -127q3 -23 3 -40q0 6 -17 -90 q6 -30 161 -33v-166z" />
<glyph unicode="&#x641;" horiz-adv-x="1053" arabic-form="final" d="M785 904l-69 -132l-173 100l69 137zM1071 0h-99q-97 0 -143 5q-295 -100 -489 -100q-292 0 -292 203q0 52 20 145q21 99 46 137l40 60q40 62 85 80q25 0 25 -41q0 -2 -69.5 -111t-69.5 -158q0 -141 209 -141q61 0 140 7q64 6 84 10q44 11 73 42l-5 45q0 46 12 86 q23 77 34 99q15 28 69 82q44 44 80 44q70 0 117 -80q38 -65 38 -143v-68q0 -28 -9 -36h104v-167zM872 223q0 29 -27 65t-55 36q-88 -36 -90 -98q31 -57 106 -57q22 0 44 16t22 38z" />
<glyph unicode="&#x641;" horiz-adv-x="600" arabic-form="initial" d="M227 1082l-65 -134l-177 100l69 135zM584 352q0 -139 -56 -204q-51 -61 -199 -107q-132 -41 -228 -41h-113v167q164 0 235 9q122 17 222 74q44 25 44 38q0 79 -56 140h-13q-5 0 -11 -2q-77 -92 -173 -113q-22 -5 -30 -5q-58 0 -58 123q0 1 3 19q47 261 189 322 q57 -1 153 -160q91 -153 91 -218v-42zM381 538q-3 11 -36 37.5t-44 26.5q-21 0 -40 -39q-17 -34 -17 -58q0 -10 1 -17q17 -6 30 -6q92 0 106 56z" />
<glyph unicode="&#x641;" horiz-adv-x="486" arabic-form="medial" d="M304 916l-69 -131l-174 100l67 132zM501 0h-139q-41 0 -179 19q-56 -19 -138 -19h-57v167h107q0 113 16 170q22 84 91 140q51 42 81 42q123 0 126 -276q1 -72 0 -76h92v-167zM332 251q0 25 -27.5 60.5t-52.5 35.5q-23 0 -58 -36t-35 -59q29 -57 103 -57q70 0 70 56z" />
<glyph unicode="&#x642;" horiz-adv-x="960" arabic-form="final" d="M747 888l-68 -131l-174 100l69 133zM509 888l-69 -131l-173 100l66 133zM982 0h-101q0 -181 -58 -261q-27 -37 -153 -91q-181 -78 -361 -78q-118 0 -195 63q-82 67 -82 184q0 70 23 153q44 162 143 248q9 8 22 9q6 -4 17 -14q5 -13 8 -27q0 -3 -71.5 -115.5t-71.5 -153.5 q0 -76 76 -123q59 -36 181 -36q23 0 154 22q297 49 297 182q0 25 -6 36q-70 -8 -109 -8q-193 0 -193 115q0 207 108 328q57 63 87 63q74 0 134 -132q50 -111 50 -197h101v-167zM762 171q0 41 -35.5 89t-74.5 51q-43 -18 -55 -83q22 -59 115 -59h46z" />
<glyph unicode="&#x642;" horiz-adv-x="600" arabic-form="initial" d="M447 1084l-69 -131l-173 100l66 132zM207 1084l-69 -131l-175 100l72 132zM584 352q0 -139 -56 -204q-51 -61 -199 -107q-132 -41 -228 -41h-113v167q164 0 235 9q122 17 222 74q44 25 44 38q0 79 -56 140h-13q-5 0 -11 -2q-77 -92 -173 -113q-22 -5 -30 -5 q-58 0 -58 123q0 1 3 19q47 261 189 322q57 -1 153 -160q91 -153 91 -218v-42zM381 538q-3 11 -36 37.5t-44 26.5q-21 0 -40 -39q-17 -34 -17 -58q0 -10 1 -17q17 -6 30 -6q92 0 106 56z" />
<glyph unicode="&#x642;" horiz-adv-x="486" arabic-form="medial" d="M449 916l-69 -131l-173 100l68 132zM210 916l-71 -131l-173 100l69 132zM501 0h-139q-41 0 -179 19q-56 -19 -138 -19h-57v167h107q0 113 16 170q22 84 91 140q51 42 81 42q123 0 126 -276q1 -72 0 -76h92v-167zM332 251q0 25 -27.5 60.5t-52.5 35.5q-23 0 -58 -36 t-35 -59q29 -57 103 -57q70 0 70 56z" />
<glyph unicode="&#x643;" horiz-adv-x="1541" arabic-form="final" d="M1589 1367q0 -64 -37 -123q-92 -36 -452 -188q-85 -36 -253 -111l-8 -14l4 -9l174 -152q65 -56 118 -111q82 -103 110 -144q51 -77 81 -163q7 -23 29 -87q36 -98 202 -98v-167h-49q-104 0 -156 57q-42 46 -72 154q-8 -63 -44 -102q-68 -74 -376 -154q-256 -67 -504 -67 q-301 0 -311 198q-2 49 -2 75q0 213 112 340q51 58 77 58q4 -2 7 -8q-1 -25 -52 -123q-58 -111 -68 -147q-7 -27 -7 -79q0 -23 31 -75q42 -71 250 -71q158 0 526 94q284 73 284 126q0 62 -95 199q-33 47 -201 189q-154 130 -155 146q-2 31 -2 38q0 115 102 242 q171 81 528 231q131 54 199 77q10 -6 10 -31z" />
<glyph unicode="&#x643;" horiz-adv-x="892" arabic-form="initial" d="M885 1352q0 -66 -38 -108q-148 -63 -448 -188q-119 -50 -254 -111l-8 -14l3 -9q167 -141 285 -259q56 -56 108 -151q58 -106 58 -173q0 -149 -58 -225q-27 -36 -228 -77q-179 -37 -262 -37h-55v167q195 -5 374 41l96 25q44 12 44 43q0 72 -96 198q-41 53 -204 190 q-27 22 -97 80q-60 51 -60 103q0 134 103 243q332 156 727 308q10 -7 10 -46z" />
<glyph unicode="&#x643;" horiz-adv-x="816" arabic-form="medial" d="M877 1348q0 -62 -34 -109l-447 -183q-152 -63 -256 -117q0 -4 -1 -7q0 -6 1 -10q256 -304 374 -477l129 -188q40 -59 80 -77q35 -16 110 -13v-167h-45q-120 0 -200 89q-31 34 -125 195q-15 25 -47 73q-10 -44 -21 -89q-14 -50 -36 -82q-88 -131 -241 -174 q-43 -12 -123 -12v167q154 0 268 90q45 36 61 76q10 28 10 86q0 48 -21 75l-155 193q-24 30 -95 132q-4 21 -4 44q0 115 96 227q55 29 181 81t335 142q98 41 194 73q12 -7 12 -38z" />
<glyph unicode="&#x644;" horiz-adv-x="852" arabic-form="final" d="M870 0h-32q-69 0 -86 14q0 -132 -55 -216q-52 -80 -173 -142q-117 -59 -204 -59q-98 0 -175 53q-84 58 -90 152q-1 19 -1 37q0 148 129 276q27 27 90 62q20 -7 20 -21q0 -16 -69 -94q-3 -3 -69 -85q-28 -33 -28 -91q0 -11 17 -44q38 -75 206 -75q73 0 193 59 q132 66 132 132q0 39 -37 220q-84 414 -137 738l30 126l24 16q14 -38 52 -250q11 -58 43 -230l34 -190q20 -108 50 -156q42 -65 136 -65v-167z" />
<glyph unicode="&#x644;" horiz-adv-x="300" arabic-form="initial" d="M257 852l-2 -9q-16 -61 -23 -81q-18 -51 -44 -67q43 -231 54 -403v-48q1 -23 6 -101q2 -36 -53 -108q-47 -35 -168 -35h-32v167q143 0 160 16q0 80 -4 130q-2 14 -9 68q-17 114 -37 343l-62 66q-6 16 -6 45q0 103 18 174q3 14 54 104l6 3q3 1 8 1q20 0 17 -15 q-17 -105 -17 -129q0 -14 2 -33q3 -27 69 -39q20 1 56 -18q11 -15 7 -31z" />
<glyph unicode="&#x644;" horiz-adv-x="426" arabic-form="medial" d="M444 0h-32q-72 0 -101 44q-15 21 -42 113q-50 -157 -274 -157v167q73 0 145 22q111 35 111 111q0 36 -12 127q-23 146 -47 293q-28 179 -28 293q0 85 20 104q13 0 28 -21.5t16 -35.5q0 -22 2 -66q3 -23 8 -69q0 -17 2 -52q28 -151 50 -307l36 -247q0 -17 6 -49 q31 -103 82 -103h30v-167z" />
<glyph unicode="&#x645;" horiz-adv-x="797" arabic-form="final" d="M813 0h-61q-96 0 -163 52l-5 -3q-20 -45 -50 -45q-3 0 -6 1q-24 29 -100 66t-98 61l-9 22q4 15 10 36q1 2 1 5q-2 4 -13 7q-47 -14 -93 -56q-52 -48 -52 -91q0 -19 46 -283q49 -279 49 -475q0 -55 -21 -55q-22 0 -24 32q-3 39 -25 158q-24 126 -59 280q-57 253 -57 292 q0 51 4 91q2 27 20 81q19 60 33 72q68 55 197 138q156 101 198 101q34 0 34 -35q0 -14 -5.5 -42t-5.5 -42q0 -58 44 -113q41 -54 97 -75q33 -13 114 -13v-167z" />
<glyph unicode="&#x645;" horiz-adv-x="514" arabic-form="initial" d="M496 220q0 -69 -32 -113l-9 -3q-6 0 -10 -2h-11l-10 2l-106 59q-28 11 -128 25q-9 -15 -39 -100q-26 -76 -103 -87q-17 -2 -60 -1v167q113 0 126 71q30 168 148 275q55 50 84 50q84 0 126 -204q24 -113 24 -139zM388 286q0 32 -30 74q-32 46 -63 46q-39 0 -50 -73 q29 0 143 -47z" />
<glyph unicode="&#x645;" horiz-adv-x="762" arabic-form="medial" d="M778 0h-96q-86 0 -137 25q-10 -20 -44 -55h-4q-7 0 -150 68q-14 5 -80 27q-24 4 -67 30q-53 -61 -89 -78t-116 -17v167q80 0 98 3q47 10 74 54q86 145 264 219q17 7 31 7q25 0 25 -26q0 -47 44 -157q27 -69 104 -90q41 -10 143 -10v-167zM447 159q-1 9 -8 25 q-26 59 -61 116q-16 0 -59 -54l-6 -18q-3 -9 55 -34z" />
<glyph unicode="&#x646;" horiz-adv-x="890" arabic-form="final" d="M569 643l-68 -131l-175 100l68 133zM909 0h-39q-61 0 -85 17q8 -87 -66 -269q-38 -63 -182 -124l-23 -10q-153 -64 -247 -64q-250 0 -250 235q0 12 18 109q15 85 45 132q24 38 91 106q36 36 96 73q7 -5 7 -66l-5 -25l-98 -110q-48 -56 -76 -124q0 -75 68 -123 q60 -43 138 -43q73 0 230 66q173 72 173 132v14q0 47 -90 212q19 149 56 149q21 0 73 -97q15 -28 166 -23v-167z" />
<glyph unicode="&#x646;" horiz-adv-x="412" arabic-form="initial" d="M202 897l-69 -132l-173 100l70 135zM394 351q0 -44 -61 -211q-12 -33 -89 -79q-111 -67 -256 -61v167q117 0 127 7q22 2 80 25q95 37 95 77q0 32 -128 155q0 28 12 75q14 56 28 63q23 0 67 -29q125 -81 125 -189z" />
<glyph unicode="&#x646;" horiz-adv-x="489" arabic-form="medial" d="M333 687l-66 -130l-177 100l69 133zM501 0h-44q-110 0 -146 44l-49 58q-69 -102 -274 -102v167q179 0 230 51q9 9 26 90q19 94 23 103q7 17 32 27q8 -5 19 -14q6 -12 6 -37q0 -22 -2.5 -65t-2.5 -65q59 -90 182 -90v-167z" />
<glyph unicode="&#x647;" horiz-adv-x="827" arabic-form="final" d="M845 0h-50q-152 0 -229 65q-51 44 -133 202q-7 -24 -24 -62q-10 -25 -123 -47q-95 -18 -146 -18q-84 0 -84 54q0 13 12 55q19 67 63 110q21 22 103 79l167 117q-4 82 7 98l16 90q6 34 33 34q7 0 15 -14q4 -100 22 -298q4 -17 13 -49q47 -169 151 -223q50 -26 187 -26 v-167zM424 340q-4 38 -15 86q-25 -7 -189 -102l6 -16l14 -5q77 10 184 37z" />
<glyph unicode="&#x647;" horiz-adv-x="819" arabic-form="initial" d="M803 184q0 -71 -46 -128q-49 -61 -119 -61q-49 0 -156.5 52.5t-148.5 52.5l-149 -71q-59 -29 -154 -29h-42v167q107 0 117 16q-3 38 -3 44q0 71 43.5 174.5t94.5 150.5l4 23q0 -18 -11 84q25 113 55 136q17 5 34 8q13 0 24 -3q57 -18 189 -156q230 -239 247 -316 q21 -98 21 -144zM690 213q0 19 -8 30q-153 201 -242 244l-6 -6l-1 -5q6 -20 6 -51q-3 -24 -23 -156q210 -105 241 -105q7 0 25 14q8 20 8 35zM359 356q0 23 -14 56q-16 38 -36 38q-33 0 -68.5 -48t-35.5 -83q0 -22 33 -33l100 2q21 26 21 68z" />
<glyph unicode="&#x647;" horiz-adv-x="609" arabic-form="medial" d="M627 0h-82v-89q0 -22 -49 -159q-15 -43 -93 -78q-67 -31 -114 -31q-139 0 -188 142q-9 27 -9 154q0 16 -4 23l-26 -2l5 40h-94v167h132q72 123 126 236q11 24 46 146q34 117 63 203q5 13 23 13q25 0 56 -78q23 -58 31 -98q16 -82 16 -158q0 -124 -67 -248l7 -16h221v-167 zM388 368q0 29 -14 83.5t-29 74.5q-11 -15 -27 -45q-7 -23 -28 -87q-50 -155 -50 -183q100 36 137 94q11 17 11 63zM455 -131q0 49 -118 92q-98 35 -161 37q-2 -36 -2 -42q0 -63 44.5 -103.5t107.5 -40.5q129 0 129 57z" />
<glyph unicode="&#x648;" horiz-adv-x="902" arabic-form="final" d="M922 0q-115 0 -127 -1q-4 -3 -8 -5q-38 -105 -160 -230t-226 -163q-56 -20 -145 -20q-200 0 -354 164l-6 15q0 9 9 16q5 0 8 1q6 -2 81 -22q163 -43 249 -43q75 0 112 12q261 84 347 266q-38 -8 -71 -8q-92 0 -155 44q-73 50 -73 138q0 68 72 189q76 130 137 130 t135 -112q49 -74 79 -204h96v-167zM700 175q0 24 -39 76t-61 52q-28 0 -57 -26t-29 -53t36 -48q32 -18 62 -18h19q50 0 66 9q3 3 3 8z" />
<glyph unicode="&#x649;" horiz-adv-x="990" arabic-form="final" d="M1015 0h-62q-102 0 -249 -17q-199 -22 -199 -64q0 -7 8 -23q28 -52 125 -53q291 -5 291 -118q0 -279 -386 -388q-114 -32 -219 -32q-120 0 -198 82t-78 202q0 55 6 111q1 15 22 89.5t26 83.5q70 116 124 140q23 0 23 -36l-63 -108t-63 -156q0 -110 65 -169.5t176 -59.5 q37 0 150 16q73 11 165 48q121 48 121 93q0 27 -150 27q-238 0 -238 171q0 66 51 163q15 29 42 69q40 61 214 79q186 19 296 17v-167z" />
<glyph unicode="&#x64a;" horiz-adv-x="990" arabic-form="final" d="M1015 0h-62q-102 0 -249 -17q-199 -22 -199 -64q0 -7 8 -23q28 -52 125 -53q291 -5 291 -118q0 -279 -386 -388q-114 -32 -219 -32q-120 0 -198 82t-78 202q0 55 6 111q1 15 22 89.5t26 83.5q70 116 124 140q23 0 23 -36l-63 -108t-63 -156q0 -110 65 -169.5t176 -59.5 q37 0 150 16q73 11 165 48q121 48 121 93q0 27 -150 27q-238 0 -238 171q0 66 51 163q15 29 42 69q40 61 214 79q186 19 296 17v-167z" />
<glyph unicode="&#x64a;" horiz-adv-x="431" arabic-form="initial" d="M394 351q0 -44 -61 -211q-12 -33 -89 -79q-111 -67 -256 -61v167q117 0 127 7q22 2 80 25q95 37 95 77q0 32 -128 155q0 28 12 75q14 56 28 63q23 0 67 -29q125 -81 125 -189zM437 -321l-67 -131l-176 101l70 132zM199 -321l-69 -131l-174 101l67 132z" />
<glyph unicode="&#x64a;" horiz-adv-x="593" arabic-form="medial" d="M620 0h-59q-110 0 -146 44l-49 58q-55 -81 -208 -98q-36 -4 -186 -4v167q143 0 172 1q136 8 178 50q9 9 26 90q19 94 23 103q7 17 32 27q8 -5 19 -14q6 -12 6 -37q0 -22 -2.5 -65t-2.5 -65q38 -58 84 -76q37 -14 113 -14v-167zM494 -321l-66 -131l-176 101l70 132z M256 -321l-69 -131l-173 101l65 132z" />
<glyph unicode="&#xd;" horiz-adv-x="345" />
<glyph unicode=" "  horiz-adv-x="345" />
<glyph unicode="&#x09;" horiz-adv-x="345" />
<glyph unicode="&#xa0;" horiz-adv-x="345" />
<glyph unicode="!" horiz-adv-x="684" d="M371 1203q0 -54 -8 -443l-4 -166q-2 -95 -12 -168q-11 -34 -78 -34q-19 0 -24 4q-18 357 -30 759q90 50 137 50zM452 159l-83 -157l-210 123l81 158z" />
<glyph unicode="%" horiz-adv-x="1322" d="M431 1128l-84 -158l-207 120l80 161zM1015 1322l-729 -1310l-53 69l732 1308zM1058 248l-82 -158l-208 121l79 160z" />
<glyph unicode="(" horiz-adv-x="752" d="M409 -57q-7 -17 -33 -17q-20 0 -31 7q-46 30 -119 121q-65 81 -99 140q-100 178 -100 380q0 222 119 412q13 18 53 72q35 48 66 77l87 81q12 5 25 8q25 0 32 -14q-84 -157 -113 -220q-110 -239 -110 -402q0 -273 223 -645z" />
<glyph unicode=")" horiz-adv-x="752" d="M724 574q0 -361 -323 -641q-14 -3 -31 -7q-23 0 -30 17q113 192 159 316q63 170 63 346q0 65 -41 214q-36 133 -181 391q0 14 32 14q26 0 106 -85q246 -261 246 -565z" />
<glyph unicode="*" horiz-adv-x="738" d="M697 518q0 -63 -59 -63q-9 0 -38 2l-28 14q-89 91 -186 188q4 -34 34 -139q27 -97 27 -119q0 -100 -73 -100q-74 0 -74 110q0 25 30 120q33 104 39 131q-12 -13 -105 -111q-72 -77 -107 -90q-16 -6 -42 -6q-67 0 -67 63q0 59 72 90q14 6 124 32l50 12q33 8 65 19 q-22 9 -113 30q-102 24 -123 33q-72 31 -72 93q0 63 67 63q53 0 134 -82q39 -41 117 -124q-4 24 -39 135q-30 94 -30 121q0 98 74 98q73 0 73 -98q0 -11 -64 -256l128 135q67 71 117 71q69 0 69 -64q0 -76 -127 -108q-56 -15 -180 -47q86 -18 253 -70q35 -16 54 -69v-14z " />
<glyph unicode="+" horiz-adv-x="1285" d="M1136 538h-436v-424h-134v424h-411v124h411v419h134v-419h436v-124z" />
<glyph unicode="," horiz-adv-x="418" d="M44 96q0 70 56 135.5t125 65.5q106 0 106 -166q0 -146 -150 -352q-34 -47 -87 -106q-19 0 -19 26q0 27 119 236q20 35 51 117v23q0 25 -39 44q0 -33 -36 -71t-69 -38q-57 0 -57 86z" />
<glyph unicode="-" horiz-adv-x="1104" d="M967 574h-819v121h819v-121z" />
<glyph unicode="." horiz-adv-x="600" d="M438 157l-83 -157l-210 120l81 161z" />
<glyph unicode="/" horiz-adv-x="976" d="M890 1322l-731 -1310l-50 69l731 1308z" />
<glyph unicode="0" horiz-adv-x="559" d="M489 524q0 -38 -60.5 -127t-95.5 -102q-76 68 -233 194q52 82 167 237q26 -9 116 -91.5t106 -110.5z" />
<glyph unicode="&#x660;" horiz-adv-x="559" d="M489 524q0 -38 -60.5 -127t-95.5 -102q-76 68 -233 194q52 82 167 237q26 -9 116 -91.5t106 -110.5z" />
<glyph unicode="1" horiz-adv-x="652" d="M524 194q0 -45 -6 -57q-3 -53 -16 -125q-8 -14 -30 -14q-13 0 -25 14q0 40 -3 109q0 3 -23 131q-40 233 -97 362q-33 73 -129 207q-2 12 -6 25q0 38 51 145q54 112 82 114q202 -208 202 -786v-125z" />
<glyph unicode="&#x661;" horiz-adv-x="652" d="M524 194q0 -45 -6 -57q-3 -53 -16 -125q-8 -14 -30 -14q-13 0 -25 14q0 40 -3 109q0 3 -23 131q-40 233 -97 362q-33 73 -129 207q-2 12 -6 25q0 38 51 145q54 112 82 114q202 -208 202 -786v-125z" />
<glyph unicode="2" horiz-adv-x="897" d="M777 1046q0 -110 -18 -178q-33 -128 -118 -165q-57 -25 -138 -28q21 -149 21 -430q0 -97 -6 -108q-3 -54 -16 -125q-9 -14 -30 -14q-13 0 -25 14q0 40 -3 109q0 3 -23 131q-40 233 -97 362q-33 73 -129 207q-2 12 -6 25q0 36 53 145q54 113 80 114q10 -7 46 -57 q50 -71 63 -81q32 -26 102 -26q155 0 200 117q7 19 23 19q21 0 21 -31z" />
<glyph unicode="&#x662;" horiz-adv-x="897" d="M777 1046q0 -110 -18 -178q-33 -128 -118 -165q-57 -25 -138 -28q21 -149 21 -430q0 -97 -6 -108q-3 -54 -16 -125q-9 -14 -30 -14q-13 0 -25 14q0 40 -3 109q0 3 -23 131q-40 233 -97 362q-33 73 -129 207q-2 12 -6 25q0 36 53 145q54 113 80 114q10 -7 46 -57 q50 -71 63 -81q32 -26 102 -26q155 0 200 117q7 19 23 19q21 0 21 -31z" />
<glyph unicode="3" horiz-adv-x="1169" d="M1023 1072q0 -123 -48 -231q-63 -139 -171 -139q-47 0 -125 56q40 0 -43.5 -41.5t-107.5 -41.5h-25q21 -149 21 -430q0 -97 -6 -108q-3 -53 -16 -125q-8 -14 -30 -14q-13 0 -25 14q0 40 -3 109q0 3 -23 131q-40 233 -97 362q-33 73 -129 207q-2 12 -6 25q0 36 53 145 q54 113 80 114q10 -7 46 -57q50 -71 63 -81q32 -26 102 -26q72 0 111 37q21 20 43 73q18 45 39 53q14 0 19 -15q15 -49 17 -53q23 -73 125 -73q23 0 60 63.5t60 63.5q16 0 16 -18z" />
<glyph unicode="&#x663;" horiz-adv-x="1169" d="M1023 1072q0 -123 -48 -231q-63 -139 -171 -139q-47 0 -125 56q40 0 -43.5 -41.5t-107.5 -41.5h-25q21 -149 21 -430q0 -97 -6 -108q-3 -53 -16 -125q-8 -14 -30 -14q-13 0 -25 14q0 40 -3 109q0 3 -23 131q-40 233 -97 362q-33 73 -129 207q-2 12 -6 25q0 36 53 145 q54 113 80 114q10 -7 46 -57q50 -71 63 -81q32 -26 102 -26q72 0 111 37q21 20 43 73q18 45 39 53q14 0 19 -15q15 -49 17 -53q23 -73 125 -73q23 0 60 63.5t60 63.5q16 0 16 -18z" />
<glyph unicode="4" horiz-adv-x="721" d="M640 101q0 -47 -28 -76q-130 0 -294 69q-131 55 -138 106q-4 25 -4 31q0 124 201 325q-107 38 -140 59q-75 47 -75 122q0 130 237 326q42 34 112 70q7 -17 8 -24q0 -27 -26 -103q-28 -81 -46 -86l-85 -24q-63 -24 -63 -57q0 -19 231 -157l2 -14q0 -20 -7 -35 q-12 -25 -128 -142q-103 -104 -103 -141q0 -53 241 -93q29 -5 72 -5q12 -7 24 -69q9 -49 9 -82z" />
<glyph unicode="&#x664;" horiz-adv-x="721" d="M640 101q0 -47 -28 -76q-130 0 -294 69q-131 55 -138 106q-4 25 -4 31q0 124 201 325q-107 38 -140 59q-75 47 -75 122q0 130 237 326q42 34 112 70q7 -17 8 -24q0 -27 -26 -103q-28 -81 -46 -86l-85 -24q-63 -24 -63 -57q0 -19 231 -157l2 -14q0 -20 -7 -35 q-12 -25 -128 -142q-103 -104 -103 -141q0 -53 241 -93q29 -5 72 -5q12 -7 24 -69q9 -49 9 -82z" />
<glyph unicode="5" horiz-adv-x="947" d="M831 589q0 -79 -63 -209q-46 -94 -85 -137q-92 -101 -281 -101q-107 0 -189 61q-90 67 -90 171q0 131 98 330q112 227 226 227q180 0 305 -152q79 -95 79 -190zM708 465q0 87 -105 185.5t-192 98.5q-72 0 -123 -103q-43 -86 -43 -168q0 -62 87 -96q63 -25 139 -25 q41 0 110 12q82 14 98 31q29 28 29 65z" />
<glyph unicode="&#x665;" horiz-adv-x="947" d="M831 589q0 -79 -63 -209q-46 -94 -85 -137q-92 -101 -281 -101q-107 0 -189 61q-90 67 -90 171q0 131 98 330q112 227 226 227q180 0 305 -152q79 -95 79 -190zM708 465q0 87 -105 185.5t-192 98.5q-72 0 -123 -103q-43 -86 -43 -168q0 -62 87 -96q63 -25 139 -25 q41 0 110 12q82 14 98 31q29 28 29 65z" />
<glyph unicode="6" horiz-adv-x="965" d="M891 239q0 -34 -41 -125q-39 -83 -62 -112q-6 -2 -13 -6q-6 0 -12 6q-176 174 -176 513q0 104 13 282l-9 9h-8q-8 0 -24 -2.5t-24 -2.5q-41 -1 -65 -1q-90 0 -150 3q-39 3 -109 19q-94 23 -100 46q-17 61 -17 178q0 29 11 88q13 1 26 7q53 -26 109 -49q124 -48 275 -48 q35 0 167 16q17 2 27 -7q-21 -186 -21 -266q0 -219 70 -348q43 -57 127 -182q6 -9 6 -18z" />
<glyph unicode="&#x666;" horiz-adv-x="965" d="M891 239q0 -34 -41 -125q-39 -83 -62 -112q-6 -2 -13 -6q-6 0 -12 6q-176 174 -176 513q0 104 13 282l-9 9h-8q-8 0 -24 -2.5t-24 -2.5q-41 -1 -65 -1q-90 0 -150 3q-39 3 -109 19q-94 23 -100 46q-17 61 -17 178q0 29 11 88q13 1 26 7q53 -26 109 -49q124 -48 275 -48 q35 0 167 16q17 2 27 -7q-21 -186 -21 -266q0 -219 70 -348q43 -57 127 -182q6 -9 6 -18z" />
<glyph unicode="7" horiz-adv-x="1119" d="M1038 889q-47 -73 -174 -275q-60 -96 -156 -361q-25 -69 -51 -166q-8 -30 -19 -68q-7 -17 -28 -17q-19 0 -30 18q-42 109 -97 206q-131 231 -446 628v14q0 36 36.5 131t60.5 120l9 2q38 -12 135 -161q181 -276 319 -680q99 336 144 455q99 259 228 417q21 -11 46 -124 q23 -102 23 -139z" />
<glyph unicode="&#x667;" horiz-adv-x="1119" d="M1038 889q-47 -73 -174 -275q-60 -96 -156 -361q-25 -69 -51 -166q-8 -30 -19 -68q-7 -17 -28 -17q-19 0 -30 18q-42 109 -97 206q-131 231 -446 628v14q0 36 36.5 131t60.5 120l9 2q38 -12 135 -161q181 -276 319 -680q99 336 144 455q99 259 228 417q21 -11 46 -124 q23 -102 23 -139z" />
<glyph unicode="8" horiz-adv-x="1119" d="M1070 277q0 -38 -37 -131q-35 -89 -61 -123q-4 -1 -7 -2q-13 0 -75 77q-215 265 -381 765q-90 -317 -144 -456q-97 -253 -227 -418q-18 10 -44 126q-23 101 -25 138q4 14 76 119q93 136 199 374q50 112 126 377q5 16 26 16q22 0 31 -17q55 -129 95 -202 q136 -241 448 -632v-11z" />
<glyph unicode="&#x668;" horiz-adv-x="1119" d="M1070 277q0 -38 -37 -131q-35 -89 -61 -123q-4 -1 -7 -2q-13 0 -75 77q-215 265 -381 765q-90 -317 -144 -456q-97 -253 -227 -418q-18 10 -44 126q-23 101 -25 138q4 14 76 119q93 136 199 374q50 112 126 377q5 16 26 16q22 0 31 -17q55 -129 95 -202 q136 -241 448 -632v-11z" />
<glyph unicode="9" horiz-adv-x="845" d="M768 211q-2 -41 -31 -124q-34 -93 -60 -100q-62 29 -146 268q-7 19 -34 185q-22 142 -39 155q-86 -21 -143 -21q-80 0 -136 47q-59 50 -59 129q0 100 69 227q79 144 168 144q64 0 116 -58q46 -52 60 -119q1 -2 37 -260q18 -131 56 -234q30 -83 142 -239zM433 795 q-5 68 -47 101q-39 30 -78 30q-70 0 -70 -95q0 -22 42 -41q23 -11 84 -11q60 0 69 16z" />
<glyph unicode="&#x669;" horiz-adv-x="845" d="M768 211q-2 -41 -31 -124q-34 -93 -60 -100q-62 29 -146 268q-7 19 -34 185q-22 142 -39 155q-86 -21 -143 -21q-80 0 -136 47q-59 50 -59 129q0 100 69 227q79 144 168 144q64 0 116 -58q46 -52 60 -119q1 -2 37 -260q18 -131 56 -234q30 -83 142 -239zM433 795 q-5 68 -47 101q-39 30 -78 30q-70 0 -70 -95q0 -22 42 -41q23 -11 84 -11q60 0 69 16z" />
<glyph unicode=":" horiz-adv-x="684" d="M483 858l-84 -156l-209 121l81 160zM483 271l-84 -157l-209 119l81 161z" />
<glyph unicode="=" horiz-adv-x="1104" d="M967 762h-819v121h819v-121zM967 496h-819v120h819v-120z" />
<glyph unicode="[" horiz-adv-x="840" d="M777 -445h-460l2 1901h458v-123h-300l-2 -1655h302v-123z" />
<glyph unicode="]" horiz-adv-x="840" d="M317 -445h460l-2 1901h-458v-123h300l2 -1655h-302v-123z" />
<glyph unicode="{" horiz-adv-x="899" d="M726 -503q-182 34 -296 152q-121 125 -121 305q0 75 31 208q24 104 24 132q0 114 -85 192q-78 73 -196 86v44q281 61 281 259q0 50 -20 142q-30 145 -30 222q0 181 117 305q113 118 295 147v-46q-111 -16 -185 -86q-78 -75 -78 -184q0 -52 15 -134q35 -188 35 -248 q0 -265 -335 -397q331 -136 331 -412q0 -58 -31 -211q-20 -97 -20 -158q0 -212 268 -274v-44z" />
<glyph unicode="}" horiz-adv-x="831" d="M112 -498q181 31 295 149q119 125 119 305q0 80 -28 208q-24 109 -24 132q0 114 85 193q79 72 196 85v44q-281 62 -281 259q0 60 17 143q33 154 33 221q0 181 -118 305q-112 118 -294 149v-48q113 -18 183 -85q78 -73 78 -183q0 -65 -13 -136q-38 -199 -38 -247 q0 -264 338 -395q-333 -138 -333 -413q0 -54 33 -210q19 -94 19 -160q0 -213 -267 -274v-42z" />
<glyph unicode="&#xab;" horiz-adv-x="976" d="M775 -45q-5 -16 -34 -16q-40 0 -150 109q-201 198 -201 426q0 254 257 476q72 61 97 61q20 0 31 -11q-223 -316 -223 -509q0 -143 68 -284q36 -75 155 -252zM409 -45q-8 -16 -34 -16q-20 0 -30 6q-140 88 -226 225q-92 146 -92 304q0 262 256 477q72 60 95 60 q21 0 31 -11q-111 -172 -129 -206q-50 -93 -82 -226q-12 -50 -12 -84q0 -221 223 -529z" />
<glyph unicode="&#xb7;" horiz-adv-x="487" d="M241 621q-92 0 -92 100q0 103 92 103q90 0 90 -103q0 -40 -25 -70t-65 -30z" />
<glyph unicode="&#x2d9;" horiz-adv-x="487" d="M241 621q-92 0 -92 100q0 103 92 103q90 0 90 -103q0 -40 -25 -70t-65 -30z" />
<glyph unicode="&#xbb;" horiz-adv-x="976" d="M958 474q0 -282 -318 -529q-20 -6 -30 -6l-23 4l-11 12q224 303 224 519q0 202 -224 526l11 7q9 2 20 4q13 0 26 -7q138 -78 230 -224q95 -152 95 -306zM595 474q0 -280 -321 -529l-31 -6q-18 0 -35 16l93 133q11 15 51 96q81 162 81 274q0 141 -69 287q-41 86 -156 255 q3 11 34 11q22 0 105 -69q248 -203 248 -468z" />
<glyph unicode="&#xd7;" horiz-adv-x="1097" d="M931 255l-68 -67l-320 319l-323 -319l-68 67l319 322l-319 323l72 65l319 -321l320 321l68 -65l-324 -323z" />
<glyph unicode="&#xf7;" horiz-adv-x="1285" d="M788 1027l-85 -157l-208 119l81 162zM1136 538h-981v124h981v-124zM803 192l-83 -157l-208 120l81 160z" />
<glyph unicode="&#x60c;" horiz-adv-x="431" d="M412 156q0 -67 -58 -134t-123 -67q-106 0 -106 166q0 144 150 353q40 55 87 106q19 0 19 -27t-119 -235q-20 -35 -51 -118v-23q0 -25 39 -44q0 34 35.5 72t69.5 38q57 0 57 -87z" />
<glyph unicode="&#x61b;" horiz-adv-x="684" d="M494 843q0 -73 -54 -136q-56 -67 -127 -67q-105 0 -105 148q0 164 149 370q46 64 86 106q13 -4 19 -25q-12 -50 -94 -191q-74 -126 -74 -184q0 -17 12 -31l25 -14q0 32 37 70.5t70 38.5q18 0 40 -25q16 -40 16 -60zM476 245l-82 -157l-208 120l81 161z" />
<glyph unicode="&#x61f;" horiz-adv-x="684" d="M440 1236q-4 -97 -71 -185q-37 -7 -74 -18q-28 -8 -28 -55q0 -34 30 -66l99 -103q25 -26 25 -126q0 -68 -60 -217q-44 -107 -64 -107q-7 4 -20 12l-8 25q14 103 14 119q0 49 -82.5 158t-82.5 190q0 74 40 163q43 95 101 129l150 89l15 5l10 -4zM452 159l-83 -157 l-210 123l81 158z" />
<glyph unicode="&#x621;" horiz-adv-x="581" d="M569 262q0 -30 -27 -77.5t-52 -62.5q-30 -18 -89 -54l-189 -114q-10 0 -30 16l-8 24l2 12q31 29 68 87q-57 12 -70 18q-63 25 -63 104q0 68 65 134q60 61 130 79q64 17 70 17q26 0 39 -13l5 -11q-33 -143 -68 -143q-9 0 -40 36q-5 1 -11 3q-59 0 -95 -64q6 -44 111 -44 q30 0 220 58q12 3 18 3q8 0 14 -8z" />
<glyph unicode="&#x622;" horiz-adv-x="659" d="M649 1372q0 -30 -56 -72q-49 -37 -85 -47q-82 -25 -127 -25q-41 13 -117 22l-56 7q-56 8 -173 -97q-2 -3 -5 -3q-5 0 -8 3l-5 16q38 177 232 177q30 0 89 -11t89 -11q42 0 171 51q13 7 38 16q13 -18 13 -26zM501 281q0 -163 -46 -291q-4 -1 -9 -1q-10 0 -19 13 q5 41 5 113q0 18 -2.5 53.5t-2.5 52.5q-3 17 -15 75q-73 338 -137 699l21 71q17 55 36 62q15 -3 27 -24q2 -8 35 -182l49 -257q58 -307 58 -384z" />
<glyph unicode="&#x623;" horiz-adv-x="392" d="M347 281q0 -163 -46 -291q-4 -1 -8 -1q-11 0 -19 13q4 41 4 113q0 15 -3 53q-2 34 -1 53q-1 15 -15 75q-63 293 -136 699q16 59 20 71q18 55 35 62q16 -3 28 -24q24 -112 36 -182q5 -38 25 -150q6 -27 22 -107q58 -292 58 -384zM282 1501q0 -23 -20 -60t-39 -48l-69 -41 q-54 -38 -148 -90q-18 -6 -28 29q25 29 53 79l-60 17q-46 12 -46 89q0 56 77 115q73 55 132 55q13 0 29 -11q3 -4 4 -12q0 -26 -20 -61q-21 -38 -44 -46q-12 0 -25 17q-34 -6 -44 -9q-25 -9 -35 -28q8 -34 87 -34q29 0 92 23t91 23q13 0 13 -7z" />
<glyph unicode="&#x624;" horiz-adv-x="882" d="M839 882q0 -22 -19.5 -62t-37.5 -51q-111 -63 -226 -141q-16 -11 -27 -11q-15 0 -26 20q-3 17 -2 25q26 25 57 76q-117 7 -117 105q0 74 80 139q77 63 152 63q15 0 35 -12q1 -4 2 -12q0 -64 -57 -114l-15 -6q-7 0 -25 18l-50 -9q-26 -10 -38 -32q8 -39 97 -39 q31 0 100.5 26.5t100.5 26.5q9 0 16 -10zM840 224q0 -53 -55 -175q-83 -187 -267 -337q-105 -86 -144 -93q-109 -20 -216 -20q-109 0 -139 20q-90 13 -159 62l-4 8l11 8l101 -5q25 -1 51 -1q356 0 600 251q124 127 124 215q-6 6 -24 10q-17 -37 -81.5 -77.5t-104.5 -40.5 q-38 0 -67 27t-29 66q0 85 39 175q92 208 187 208q70 0 127 -103q50 -90 50 -167v-31zM684 311q-19 36 -58 36q-30 0 -62 -32q-15 -32 -15 -58l3 -29l11 -4q36 0 78.5 26t42.5 61z" />
<glyph unicode="&#x625;" horiz-adv-x="484" d="M347 281q0 -163 -46 -291q-4 -1 -8 -1q-11 0 -19 13q4 41 4 113q0 15 -3 53q-2 34 -1 53q-1 15 -15 75q-63 293 -136 699q16 59 20 71q18 55 35 62q16 -3 28 -24q24 -112 36 -182q5 -38 25 -150q6 -27 22 -107q58 -292 58 -384zM520 -293q0 -24 -20 -60.5t-39 -48.5 l-69 -40q-54 -38 -148 -91q-18 -6 -29 30q25 29 54 79l-61 16q-45 13 -45 90q0 56 77 114q73 56 131 56q13 0 30 -11q2 -5 4 -12q0 -26 -20.5 -63t-44.5 -44q-12 0 -25 17q-33 -6 -44 -10q-24 -9 -34 -27q8 -35 87 -35q29 0 91.5 23.5t91.5 23.5q13 0 13 -7z" />
<glyph unicode="&#x626;" horiz-adv-x="1067" d="M990 288q0 -19 -15 -55q-17 -40 -33 -40q11 0 11 5q0 9 -38 36q-59 42 -77 42q-103 0 -229 -125q-106 -105 -106 -147q0 -80 135 -83q291 -4 291 -117q0 -103 -71 -206q-89 -130 -315 -182q-139 -32 -219 -32q-119 0 -197.5 81t-78.5 201q0 48 7 109q2 18 21.5 92 t25.5 84q88 139 124 139q8 0 17 -10q6 -15 6 -24l-63 -108t-63 -156q0 -109 66 -169.5t175 -60.5q97 0 251 43q185 51 185 114q0 26 -150 26q-236 0 -236 162q0 137 115 297q110 153 239 214q35 16 95 16q127 0 127 -146zM482 520q0 -61 -52 -98q-33 -17 -63 -35 q-54 -38 -133 -82q-17 0 -26 27q23 24 49 70q-55 16 -70 28q-25 20 -25 69q0 51 68 102q65 49 119 49q14 0 27 -9q2 -4 4 -10q0 -22 -19.5 -55.5t-39.5 -41.5q-9 0 -22 15q-30 -4 -41 -8q-21 -7 -31 -25q9 -32 80 -32q29 0 82.5 21t81.5 21q11 0 11 -6z" />
<glyph unicode="&#x627;" horiz-adv-x="392" d="M347 281q0 -163 -46 -291q-4 -1 -8 -1q-11 0 -19 13q4 41 4 113q0 15 -3 53q-2 34 -1 53q-1 15 -15 75q-63 293 -136 699q16 59 20 71q18 55 35 62q16 -3 28 -24q24 -112 36 -182q5 -38 25 -150q6 -27 22 -107q58 -292 58 -384z" />
<glyph unicode="&#x628;" horiz-adv-x="1153" d="M1109 384q0 -18 -12 -73q-22 -107 -75 -150q-34 -29 -157 -77q-230 -89 -564 -89q-253 0 -253 226q0 66 26 161q23 83 28 96q11 25 52 86q24 36 64 69q11 10 21 10q25 0 25 -41l-69.5 -110t-69.5 -159q0 -100 78 -140q44 -23 175 -29q53 -2 106 -2q115 0 312 61 q74 22 112 39q86 37 87 66q-24 53 -120 146q0 28 11 74q14 53 30 64q31 0 98 -54q95 -76 95 -174zM772 -255l-68 -131l-173 100l69 134z" />
<glyph unicode="&#x62a;" horiz-adv-x="1153" d="M757 814l-70 -132l-173 100l68 134zM516 814l-69 -132l-173 100l69 134zM1109 384q0 -18 -12 -73q-22 -107 -75 -150q-34 -29 -157 -77q-230 -89 -564 -89q-253 0 -253 226q0 66 26 161q23 83 28 96q11 25 52 86q24 36 64 69q11 10 21 10q25 0 25 -41l-69.5 -110 t-69.5 -159q0 -100 78 -140q44 -23 175 -29q53 -2 106 -2q115 0 312 61q74 22 112 39q86 37 87 66q-24 53 -120 146q0 28 11 74q14 53 30 64q31 0 98 -54q95 -76 95 -174z" />
<glyph unicode="&#x62b;" horiz-adv-x="1153" d="M757 809l-70 -134l-173 100l68 137zM563 1013l-67 -130l-176 100l69 132zM516 809l-69 -134l-173 100l69 137zM1109 384q0 -18 -12 -73q-22 -107 -75 -150q-34 -29 -157 -77q-230 -89 -564 -89q-253 0 -253 226q0 66 26 161q23 83 28 96q11 25 52 86q24 36 64 69 q11 10 21 10q25 0 25 -41l-69.5 -110t-69.5 -159q0 -100 78 -140q44 -23 175 -29q53 -2 106 -2q115 0 312 61q74 22 112 39q86 37 87 66q-24 53 -120 146q0 28 11 74q14 53 30 64q31 0 98 -54q95 -76 95 -174z" />
<glyph unicode="&#x62c;" horiz-adv-x="1013" d="M1127 -483q0 -8 -4 -13q-57 -76 -232 -162q-126 -62 -320 -62q-188 0 -339 100q-173 114 -173 292q0 144 73 307q74 168 183 254q-48 15 -128 15q-49 0 -67 -8q-14 0 -46 -16.5t-37 -16.5q-8 10 -18 33q7 161 196 161q49 0 147 -5.5t147 -5.5q71 0 259 24q46 6 59 5 q6 -6 6 -39q0 -97 -38 -103l-118 -16q-65 -10 -181 -55q-356 -140 -356 -444q0 -142 122 -232q110 -82 257 -82q279 0 415 26q87 17 132 35q15 7 42 20q7 2 9 2q10 0 10 -14zM679 -169l-67 -131l-174 100l67 133z" />
<glyph unicode="&#x62d;" horiz-adv-x="1024" d="M1127 -483q0 -8 -4 -13q-57 -76 -232 -162q-126 -62 -320 -62q-188 0 -339 100q-173 114 -173 292q0 144 73 307q74 168 183 254q-48 15 -128 15q-49 0 -67 -8q-14 0 -46 -16.5t-37 -16.5q-8 10 -18 33q7 161 196 161q49 0 147 -5.5t147 -5.5q71 0 259 24q46 6 59 5 q6 -6 6 -39q0 -97 -38 -103l-118 -16q-65 -10 -181 -55q-356 -140 -356 -444q0 -142 122 -232q110 -82 257 -82q279 0 415 26q87 17 132 35q15 7 42 20q7 2 9 2q10 0 10 -14z" />
<glyph unicode="&#x62e;" horiz-adv-x="1036" d="M469 797l-70 -131l-173 99l69 135zM1127 -483q0 -8 -4 -13q-57 -76 -232 -162q-126 -62 -320 -62q-188 0 -339 100q-173 114 -173 292q0 144 73 307q74 168 183 254q-48 15 -128 15q-49 0 -67 -8q-14 0 -46 -16.5t-37 -16.5q-8 10 -18 33q7 161 196 161q49 0 147 -5.5 t147 -5.5q71 0 259 24q46 6 59 5q6 -6 6 -39q0 -97 -38 -103l-118 -16q-65 -10 -181 -55q-356 -140 -356 -444q0 -142 122 -232q110 -82 257 -82q279 0 415 26q87 17 132 35q15 7 42 20q7 2 9 2q10 0 10 -14z" />
<glyph unicode="&#x62f;" horiz-adv-x="652" d="M628 313q0 -68 -15 -124q-18 -64 -67 -94q-19 -11 -116 -45q-167 -57 -250 -57q-97 0 -97 93q0 40 13 87q17 59 43 59q18 0 22 -27q4 -35 29 -51q23 -6 72 -6q76 0 254 92q22 12 22 31q-33 84 -97 125q-90 60 -113 85l-1 15q0 7 23 107q4 19 21 21q175 -72 239 -228 q18 -43 18 -83z" />
<glyph unicode="&#x630;" horiz-adv-x="652" d="M338 909l-69 -134l-174 100l67 136zM628 313q0 -68 -15 -124q-18 -64 -67 -94q-19 -11 -116 -45q-167 -57 -250 -57q-97 0 -97 93q0 40 13 87q17 59 43 59q18 0 22 -27q4 -35 29 -51q23 -6 72 -6q76 0 254 92q22 12 22 31q-33 84 -97 125q-90 60 -113 85l-1 15 q0 7 23 107q4 19 21 21q175 -72 239 -228q18 -43 18 -83z" />
<glyph unicode="&#x631;" horiz-adv-x="935" d="M892 208q0 -68 -59 -191q-104 -140 -244 -218q-193 -107 -399 -107q-169 0 -246 38q-19 9 -37 25q131 12 301 32q204 38 434 199q162 113 162 173q0 25 -39.5 101.5t-39.5 84.5v43q0 29 17 57q19 32 47 32q1 0 3 -1q100 -152 100 -231v-37z" />
<glyph unicode="&#x632;" horiz-adv-x="923" d="M692 782l-69 -130l-173 100l69 133zM881 208q0 -68 -60 -191q-104 -140 -244 -218q-192 -107 -399 -107q-169 0 -246 38q-19 9 -37 25q131 12 301 32q204 38 435 199q161 113 161 173q0 25 -39 101.5t-39 84.5v43q0 29 16 57q19 32 47 32q1 0 4 -1q100 -152 100 -231v-37 z" />
<glyph unicode="&#x633;" horiz-adv-x="1427" d="M1376 301q0 -109 -38 -192q-50 -107 -148 -107q-64 0 -93 33q-56 -36 -231 -36q-66 0 -91 11q-15 -111 -47 -158q-48 -70 -200 -136q-145 -63 -238 -63q-263 0 -263 235q0 144 63 246q56 91 184 177q9 -8 9 -42q0 -19 -7 -51l-96 -111q-50 -58 -78 -124q10 -79 71 -124 q57 -42 140 -42q72 0 230 66q171 73 171 131q0 53 -83 210q12 52 44 123l7 3q43 -1 106 -183q91 -5 109 -5q155 0 229 58q34 123 62 123q23 0 23 -37q0 -16 -5.5 -46.5t-5.5 -46.5q0 -24 8 -37l6 -2h15q40 0 44 7q17 4 39 80t39 76q15 0 25 -22v-14z" />
<glyph unicode="&#x634;" horiz-adv-x="1427" d="M1246 765l-70 -132l-173 100l68 135zM1062 970l-69 -130l-174 100l69 133zM1005 765l-69 -132l-173 100l69 135zM1376 301q0 -109 -38 -192q-50 -107 -148 -107q-64 0 -93 33q-56 -36 -231 -36q-66 0 -91 11q-15 -111 -47 -158q-48 -70 -200 -136q-145 -63 -238 -63 q-263 0 -263 235q0 144 63 246q56 91 184 177q9 -8 9 -42q0 -19 -7 -51l-96 -111q-50 -58 -78 -124q10 -79 71 -124q57 -42 140 -42q72 0 230 66q171 73 171 131q0 53 -83 210q12 52 44 123l7 3q43 -1 106 -183q91 -5 109 -5q155 0 229 58q34 123 62 123q23 0 23 -37 q0 -16 -5.5 -46.5t-5.5 -46.5q0 -24 8 -37l6 -2h15q40 0 44 7q17 4 39 80t39 76q15 0 25 -22v-14z" />
<glyph unicode="&#x635;" horiz-adv-x="1827" d="M1824 342q0 -87 -66 -171q-42 -52 -134 -100q-86 -45 -158 -57q-147 -24 -385 -24q-71 0 -96 10q-106 -134 -156 -255q-2 -1 -3 -1q-3 0 -5 1l-12 24q14 76 100 236l-75 9q-45 8 -69 26q0 -98 -49 -185q-34 -62 -200 -133q-154 -67 -238 -67q-204 0 -246 145 q-18 62 -18 91q0 25 16 108q22 122 133 234q37 38 99 80l7 -16q2 -19 2 -58q-1 -6 -4 -19l-97 -111q-48 -55 -80 -123q24 -167 210 -167q72 0 228 66q174 72 174 132q0 54 -83 209q13 55 18 70q18 55 35 59q32 -5 93 -150q12 -28 239 -43q40 50 126 139q330 268 397 268 q92 0 190 -67q107 -73 107 -160zM1703 288q0 7 -38 36q-101 75 -199 75q-41 0 -178 -97q-132 -92 -165 -135q42 -10 173 -10q130 0 276 48q131 42 131 83z" />
<glyph unicode="&#x636;" horiz-adv-x="1827" d="M1565 925l-67 -130l-174 100l69 133zM1824 342q0 -87 -66 -171q-42 -52 -134 -100q-86 -45 -158 -57q-147 -24 -385 -24q-71 0 -96 10q-106 -134 -156 -255q-2 -1 -3 -1q-3 0 -5 1l-12 24q14 76 100 236l-75 9q-45 8 -69 26q0 -98 -49 -185q-34 -62 -200 -133 q-154 -67 -238 -67q-204 0 -246 145q-18 62 -18 91q0 25 16 108q22 122 133 234q37 38 99 80l7 -16q2 -19 2 -58q-1 -6 -4 -19l-97 -111q-48 -55 -80 -123q24 -167 210 -167q72 0 228 66q174 72 174 132q0 54 -83 209q13 55 18 70q18 55 35 59q32 -5 93 -150q12 -28 239 -43 q40 50 126 139q330 268 397 268q92 0 190 -67q107 -73 107 -160zM1703 288q0 7 -38 36q-101 75 -199 75q-41 0 -178 -97q-132 -92 -165 -135q42 -10 173 -10q130 0 276 48q131 42 131 83z" />
<glyph unicode="&#x637;" horiz-adv-x="1151" d="M1113 333q0 -59 -67 -162q-30 -47 -132 -100q-11 -5 -160 -57q-68 -24 -382 -24q-70 0 -98 10l-159 -256q-8 0 -17 25q23 76 107 245q-37 4 -102 59t-65 89q0 6 19 15q66 -13 94 -13q39 0 144 -2q17 13 50 53v104q0 34 -19 124l-55 258q-16 79 -16 126q-18 19 -50 61 l-5 53q0 145 32 205l35 64q4 3 11 4q22 0 19 -16l-17 -131q-9 -59 70 -70q11 -1 44 -6q21 -7 21 -35q0 -44 -48 -144q-5 -10 -22 -15q1 -13 30 -129q51 -208 45 -316l-4 -66q11 13 166 138q180 145 234 145q98 0 193 -68q104 -74 104 -168zM995 288q-8 18 -39 36 q-129 75 -202 75q-38 0 -182 -100q-137 -96 -166 -137h185q9 2 21 5q56 0 112 7q270 34 271 114z" />
<glyph unicode="&#x638;" horiz-adv-x="1151" d="M847 897l-68 -132l-174 100l67 135zM1113 333q0 -59 -67 -162q-30 -47 -132 -100q-11 -5 -160 -57q-68 -24 -382 -24q-70 0 -98 10l-159 -256q-8 0 -17 25q23 76 107 245q-37 4 -102 59t-65 89q0 6 19 15q66 -13 94 -13q39 0 144 -2q17 13 50 53v104q0 34 -19 124 l-55 258q-16 79 -16 126q-18 19 -50 61l-5 53q0 145 32 205l35 64q4 3 11 4q22 0 19 -16l-17 -131q-9 -59 70 -70q11 -1 44 -6q21 -7 21 -35q0 -44 -48 -144q-5 -10 -22 -15q1 -13 30 -129q51 -208 45 -316l-4 -66q11 13 166 138q180 145 234 145q98 0 193 -68 q104 -74 104 -168zM995 288q-8 18 -39 36q-129 75 -202 75q-38 0 -182 -100q-137 -96 -166 -137h185q9 2 21 5q56 0 112 7q270 34 271 114z" />
<glyph unicode="&#x639;" horiz-adv-x="1059" d="M1185 -543q-5 -26 -80 -79q-16 -12 -72 -50q-202 -140 -443 -140q-259 0 -400 133q-145 136 -145 393q0 137 69 288q39 86 87 157q20 24 51 72q15 28 12 44l-2 6q-107 77 -107 135q0 16 14 102q25 149 128 245q52 47 77 49q46 2 81 2q38 0 120 -36q89 -39 89 -68 q0 -18 -18 -39t-36 -21q-14 3 -85 25q-24 7 -68 7q-49 0 -120 -69q-65 -64 -82 -117q22 -39 100 -63q61 -19 121 -19q49 0 208.5 81t185.5 81q15 0 15 -33q0 -31 -17 -100q-82 -34 -203 -86q-23 -11 -94 -42q-7 -2 -28 -12l-62 -34q-361 -201 -361 -512q0 -202 170 -312 q145 -92 357 -92q190 0 320 38q25 7 111 51q82 42 88 40q19 -3 19 -25z" />
<glyph unicode="&#x63a;" horiz-adv-x="1059" d="M538 1158l-69 -130l-174 100l67 133zM1185 -543q-5 -26 -80 -79q-16 -12 -72 -50q-202 -140 -443 -140q-259 0 -400 133q-145 136 -145 393q0 137 69 288q39 86 87 157q20 24 51 72q15 28 12 44l-2 6q-107 77 -107 135q0 16 14 102q25 149 128 245q52 47 77 49q46 2 81 2 q38 0 120 -36q89 -39 89 -68q0 -18 -18 -39t-36 -21q-14 3 -85 25q-24 7 -68 7q-49 0 -120 -69q-65 -64 -82 -117q22 -39 100 -63q61 -19 121 -19q49 0 208.5 81t185.5 81q15 0 15 -33q0 -31 -17 -100q-82 -34 -203 -86q-23 -11 -94 -42q-7 -2 -28 -12l-62 -34 q-361 -201 -361 -512q0 -202 170 -312q145 -92 357 -92q190 0 320 38q25 7 111 51q82 42 88 40q19 -3 19 -25z" />
<glyph unicode="&#x640;" horiz-adv-x="345" d="M371 0h-394v167h394v-167z" />
<glyph unicode="&#x641;" horiz-adv-x="1097" d="M679 1108l-67 -132l-174 100l67 134zM1075 334q0 -191 -106 -297q-132 -132 -647 -132q-274 0 -274 203q0 52 20 145q21 99 46 137l40 60q40 62 85 80q25 0 25 -41q0 -3 -69.5 -111.5t-69.5 -157.5q0 -141 209 -141q23 0 140 7q162 10 284 21q100 37 125 50q68 35 98 88 q0 87 -59 141h-15q-5 0 -10 -3q-95 -116 -208 -116q-21 0 -35 13q-19 33 -19 102q0 82 60 198q64 123 132 151q95 -36 192 -236q56 -116 56 -161zM868 494q-3 12 -34.5 38.5t-43.5 26.5q-22 0 -40 -37q-16 -31 -16 -57q0 -15 3 -20q14 -6 28 -6q27 0 60 15q37 17 43 40z" />
<glyph unicode="&#x642;" horiz-adv-x="843" d="M666 1031l-69 -131l-173 100l65 133zM426 1031l-69 -131l-174 100l69 133zM829 313q0 -51 -22 -156q-24 -111 -45 -147q-46 -76 -169 -125q-112 -44 -210 -44q-364 0 -364 249q0 63 24 152q19 71 28 95q17 43 52 84q45 55 75 78q4 1 10 2q25 0 25 -42q0 -1 -71.5 -112.5 t-71.5 -156.5q0 -41 30 -81t69 -56.5t86 -28.5q37 -10 144 -10q181 0 299 120q34 36 34 68q0 78 -57 141h-16q-4 0 -10 -3q-72 -107 -173 -107q-71 0 -71 129q0 97 74 233q49 92 101 92l15 -5q107 -50 186 -246q28 -72 28 -123zM643 447q-16 36 -77 67q-23 0 -42 -37 q-16 -32 -16 -58l3 -20q3 -5 17 -5h28q21 0 51 17t36 36z" />
<glyph unicode="&#x644;" horiz-adv-x="671" d="M669 722q-21 -67 -26 -82q-17 -44 -43 -75q20 -129 26 -234q1 -35 7 -138q3 -57 10 -107q0 -53 -24 -147q-29 -113 -188 -179q-66 -28 -156 -28q-86 0 -155 57q-72 60 -77 144q-1 22 -1 38q0 162 154 300q41 37 66 37q20 0 20 -22t-30 -52l-41 -41q-93 -111 -93 -157 q0 -148 218 -148q63 0 121 28q115 54 115 116q0 37 -25 216q-31 220 -31 347l-50 52q-19 25 -19 62q0 150 72 279l13 2q22 0 20 -14q-19 -119 -19 -164q0 -30 69 -41q7 -1 44 -5q23 -6 23 -33v-11z" />
<glyph unicode="&#x645;" horiz-adv-x="514" d="M491 444q0 -51 -7 -63q-3 -34 -29 -51l-27 -4q-26 0 -77.5 2.5t-77.5 2.5q-99 0 -115 -64q-13 -55 -12 -62l53 -297q26 -147 37 -298q2 -34 2 -150q0 -226 -27 -266q-5 -6 -19 -10q-8 2 -16 8q-4 17 -7 144q-6 254 -33 387l-43 210q-24 118 -24 212q0 123 55 269 q10 29 56 56q23 14 46 29q0 32 -90 32q-17 0 -34 -15q-13 -26 -33 -35q-21 0 -21 47q0 179 142 179q88 0 196 -92q89 -76 101 -126q4 -20 4 -45z" />
<glyph unicode="&#x646;" horiz-adv-x="819" d="M486 619l-70 -133l-173 99l70 136zM797 39q0 -77 -66 -244q-36 -62 -200 -133q-155 -67 -238 -67q-165 0 -222 87q-11 17 -26 73.5t-15 77.5q0 135 62 238q23 40 90 107q30 31 94 74q10 -3 10 -71q-2 -6 -5 -19l-97 -112q-49 -57 -79 -124q9 -81 78 -125q61 -39 147 -39 q71 0 222 68q164 74 164 128q0 56 -57 163q-1 6 -8 15q-12 20 -64 91q9 51 39 124q8 6 12 6l7 -2q64 -31 111 -138q41 -96 41 -178z" />
<glyph unicode="&#x647;" horiz-adv-x="540" d="M481 297q0 -34 -16 -84q-40 -131 -169 -192q-75 -35 -127 -35q-88 0 -88 126q0 13 15 83q25 113 122 250q3 41 34 57q90 0 149 -47q80 -64 80 -158zM386 243q0 30 -59 64q-53 31 -87 31q-13 0 -45.5 -60t-32.5 -78q0 -22 26 -38t49 -16q34 0 89 32q60 34 60 65z" />
<glyph unicode="&#x648;" horiz-adv-x="860" d="M840 224q0 -53 -55 -175q-83 -187 -267 -337q-105 -86 -144 -93q-109 -20 -216 -20q-109 0 -139 20q-90 13 -159 62l-4 8l11 8l101 -5q25 -1 50 -1q357 0 601 251q124 127 124 215q-6 6 -24 10q-17 -37 -81.5 -77.5t-104.5 -40.5q-38 0 -67 27t-29 66q0 85 39 175 q92 208 187 208q70 0 127 -103q50 -90 50 -167v-31zM684 311q-19 36 -58 36q-30 0 -62 -32q-15 -32 -15 -58l3 -29l11 -4q36 0 78.5 26t42.5 61z" />
<glyph unicode="&#x649;" horiz-adv-x="1067" d="M990 288q0 -19 -15 -55q-17 -40 -33 -40q11 0 11 5q0 9 -38 36q-59 42 -77 42q-103 0 -229 -125q-106 -105 -106 -147q0 -80 135 -83q291 -4 291 -117q0 -103 -71 -206q-89 -130 -315 -182q-139 -32 -219 -32q-119 0 -197.5 81t-78.5 201q0 48 7 109q2 18 21.5 92 t25.5 84q88 139 124 139q8 0 17 -10q6 -15 6 -24l-63 -108t-63 -156q0 -109 66 -169.5t175 -60.5q97 0 251 43q185 51 185 114q0 26 -150 26q-236 0 -236 162q0 137 115 297q110 153 239 214q35 16 95 16q127 0 127 -146z" />
<glyph unicode="&#x64b;" d="M402 1817l-22 -103l-360 -112l14 103zM402 2004l-22 -103l-360 -112l14 103z" />
<glyph unicode="&#x64c;" d="M359 1802q0 -41 -47 -112l-73 30q-28 -35 -88 -74q-76 -50 -134 -50q-12 0 -26 76q7 2 39 16q2 22 2 39q0 59 -34 59q-13 0 -32 -25.5t-21 -25.5q-24 0 -24 60q0 34 28.5 70.5t60.5 36.5q38 0 62 -31.5t24 -70.5q0 -65 -9 -90q58 32 80 64q-48 44 -48 108q0 63 33 119 q40 66 96 66q89 0 89 -114q0 -67 -30 -128q12 -12 52 -23zM247 1861q19 28 19 57q0 58 -41 58q-32 0 -32 -51q0 -18 18 -38.5t36 -25.5z" />
<glyph unicode="&#x64d;" d="M447 -1248l-21 -105l-361 -110l15 103zM447 -1061l-21 -105l-361 -110l15 103z" />
<glyph unicode="&#x64e;" d="M410 1920l-21 -103l-361 -112l14 103z" />
<glyph unicode="&#x64f;" d="M376 1797q0 -41 -46 -112l-73 30q-28 -35 -89 -74q-76 -50 -133 -50q-12 0 -27 76q128 34 176 102q-48 44 -48 108q0 63 34 119q40 66 96 66q89 0 89 -114q0 -68 -30 -128q12 -12 51 -23zM264 1856q20 28 20 56q0 59 -41 59q-32 0 -32 -51q0 -18 17.5 -38.5t35.5 -25.5z " />
<glyph unicode="&#x650;" d="M441 -1015l-21 -105l-363 -110l16 103z" />
<glyph unicode="&#x651;" d="M487 1815q0 -57 -30 -107q-35 -56 -89 -56q-43 0 -66 44q-37 -80 -99 -80q-41 0 -64 39q-20 33 -20 77q0 112 45 112q4 0 19 -48t45 -48q29 0 54 57.5t36 57.5q6 0 19 -43.5t29 -43.5q32 0 60.5 51.5t30.5 51.5q30 0 30 -64z" />
<glyph unicode="&#x652;" d="M317 1810q0 -68 -33 -117q-38 -55 -104 -55q-145 0 -145 174q0 52 37 111q42 66 90 66q67 0 111 -55.5t44 -123.5zM244 1796q-30 67 -96 67q-16 0 -31 -14t-15 -30q0 -46 57 -46q60 0 85 23z" />
<glyph unicode="&#x67e;" horiz-adv-x="1153" d="M1109 384q0 -18 -12 -73q-22 -107 -75 -150q-34 -29 -157 -77q-230 -89 -564 -89q-253 0 -253 226q0 66 26 161q23 83 28 96q11 25 52 86q24 36 64 69q11 10 21 10q25 0 25 -41l-69.5 -110t-69.5 -159q0 -100 78 -140q44 -23 175 -29q53 -2 106 -2q115 0 312 61 q74 22 112 39q86 37 87 66q-24 53 -120 146q0 28 11 74q14 53 30 64q31 0 98 -54q95 -76 95 -174zM885 -257l-67 -133l-176 102l68 131zM838 -461l-69 -135l-174 104l69 131zM646 -257l-68 -133l-174 102l65 131z" />
<glyph unicode="&#x686;" horiz-adv-x="1032" d="M833 -81l-68 -134l-176 103l70 131zM1127 -483q0 -8 -4 -13q-57 -76 -232 -162q-126 -62 -320 -62q-188 0 -339 100q-173 114 -173 292q0 144 73 307q74 168 183 254q-48 15 -128 15q-49 0 -67 -8q-14 0 -46 -16.5t-37 -16.5q-8 10 -18 33q7 161 196 161q49 0 147 -5.5 t147 -5.5q71 0 259 24q46 6 59 5q6 -6 6 -39q0 -97 -38 -103l-118 -16q-65 -10 -181 -55q-356 -140 -356 -444q0 -142 122 -232q110 -82 257 -82q279 0 415 26q87 17 132 35q15 7 42 20q7 2 9 2q10 0 10 -14zM786 -286l-69 -133l-173 102l69 131zM595 -81l-69 -134l-174 103 l67 131z" />
<glyph unicode="&#x698;" horiz-adv-x="912" d="M821 797l-69 -131l-174 99l69 135zM626 1002l-68 -132l-174 100l71 134zM581 797l-71 -131l-172 99l69 135zM869 208q0 -68 -60 -191q-103 -140 -243 -218q-193 -107 -399 -107q-169 0 -246 38q-19 9 -37 25q131 12 301 32q204 38 434 199q162 113 162 173 q0 25 -39.5 101.5t-39.5 84.5v43q0 29 17 57q19 32 46 32q2 0 4 -1q100 -152 100 -231v-37z" />
<glyph unicode="&#x6af;" horiz-adv-x="1597" d="M1493 1557q0 -36 -35 -91l-431 -178q-74 -31 -244 -106q-11 3 -11 23q0 74 81 110l130 58q8 4 320 137q69 29 186 73q4 -5 4 -26zM1589 1367q0 -64 -37 -123q-92 -36 -452 -188q-85 -36 -253 -111l-8 -14l4 -9l173 -152q97 -85 162 -163q31 -37 67 -109q39 -76 45 -117 q2 -17 2 -51q0 -49 -14 -119q-17 -82 -65 -122q-58 -46 -269 -110q-298 -91 -588 -91q-301 0 -311 198q-2 49 -2 75q0 213 112 340q51 58 77 58q4 -2 7 -8q-1 -25 -52 -123q-58 -111 -68 -147q-7 -27 -7 -79q0 -23 31 -75q42 -71 250 -71q158 0 526 94q284 73 284 126 q0 62 -95 199q-33 47 -201 189q-154 130 -155 146q-2 31 -2 38q0 115 102 242q171 81 528 231q131 54 199 77q10 -6 10 -31z" />
<glyph unicode="&#x200c;" horiz-adv-x="45" />
<glyph unicode="&#x200d;" horiz-adv-x="45" />
<glyph unicode="&#x200e;" horiz-adv-x="39" d="M258 1375l-114 -117l-29 24l75 75h-151v-1357h-39v1394h185l-70 71l29 27z" />
<glyph unicode="&#x200f;" horiz-adv-x="39" d="M39 0h-39v1357h-151l73 -75l-24 -24l-120 117l120 117l24 -27l-71 -71h188v-1394z" />
<glyph unicode="&#x2018;" horiz-adv-x="636" d="M427 1248q0 -70 -55 -134q-57 -67 -126 -67q-106 0 -106 165q0 147 150 354q34 46 87 105q19 0 19 -26q0 -28 -119 -235q-21 -37 -51 -118v-23q0 -25 39 -44q0 33 36 71.5t69 38.5q57 0 57 -87z" />
<glyph unicode="&#x2019;" horiz-adv-x="629" d="M181 1490q0 70 56 135.5t125 65.5q106 0 106 -165q0 -147 -150 -353q-34 -47 -87 -106q-19 0 -19 26q0 28 119 235q21 37 51 118v23q0 26 -39 44q0 -33 -36 -71.5t-69 -38.5q-57 0 -57 87z" />
<glyph unicode="&#x201c;" horiz-adv-x="773" d="M386 1258q0 -70 -55 -134q-58 -67 -126 -67q-106 0 -106 165q0 147 150 354q34 46 87 105q19 0 19 -26q0 -28 -119 -235q-21 -37 -52 -118v-23q0 -25 40 -44q0 33 36 71.5t68 38.5q58 0 58 -87zM693 1255q0 -69 -55 -134q-58 -67 -126 -67q-106 0 -106 166q0 147 150 353 q34 47 87 106q19 0 19 -26q0 -28 -119 -236q-21 -36 -52 -118v-22q0 -26 40 -44q0 33 36 71t68 38q58 0 58 -87z" />
<glyph unicode="&#x201d;" horiz-adv-x="828" d="M406 1478q0 70 56 135.5t125 65.5q106 0 106 -165q0 -148 -150 -354q-34 -46 -87 -106q-19 0 -19 26q0 29 119 236q21 37 51 118v23q0 25 -39 44q0 -33 -36.5 -71.5t-68.5 -38.5q-57 0 -57 87zM99 1480q0 70 56 135.5t125 65.5q106 0 106 -165q0 -147 -150 -353 q-34 -47 -87 -106q-19 0 -19 26q0 28 119 235q21 37 51 118v23q0 26 -39 44q0 -33 -36.5 -71.5t-68.5 -38.5q-57 0 -57 87z" />
<glyph unicode="&#x2039;" horiz-adv-x="890" d="M689 -45q-5 -16 -34 -16q-40 0 -150 109q-201 198 -201 426q0 254 257 476q72 61 97 61q20 0 31 -11q-223 -316 -223 -509q0 -143 68 -284q36 -75 155 -252z" />
<glyph unicode="&#x203a;" horiz-adv-x="873" d="M629 474q0 -280 -321 -529l-31 -6q-18 0 -34 16l92 133q11 15 52 96q81 162 81 274q0 141 -69 287q-41 86 -156 255q2 11 33 11q22 0 106 -69q247 -203 247 -468z" />
<glyph unicode="&#xe000;" horiz-adv-x="500" d="M0 0v0v0v0v0z" />
<glyph unicode="&#xe820;" d="M420 1435l-21 -103l-361 -112l14 103z" />
<glyph unicode="&#xe821;" d="M395 1356q0 -41 -46 -112l-73 30q-28 -35 -89 -74q-76 -50 -133 -50q-12 0 -27 76q128 34 176 102q-48 44 -48 108q0 63 34 119q40 66 96 66q89 0 89 -114q0 -68 -30 -128q12 -12 51 -23zM283 1415q20 28 20 56q0 59 -41 59q-32 0 -32 -51q0 -18 17.5 -38.5t35.5 -25.5z " />
<glyph unicode="&#xe822;" d="M288 1349q0 -68 -33 -117q-38 -55 -104 -55q-145 0 -145 174q0 52 37 111q42 66 90 66q67 0 111 -55.5t44 -123.5zM215 1335q-30 67 -96 67q-16 0 -31 -14t-15 -30q0 -46 57 -46q60 0 85 23z" />
<glyph unicode="&#xe823;" d="M392 1352l-22 -103l-360 -112l14 103zM392 1539l-22 -103l-360 -112l14 103z" />
<glyph unicode="&#xe824;" d="M417 1356q0 -41 -47 -112l-73 30q-28 -35 -88 -74q-76 -50 -134 -50q-12 0 -26 76q7 2 39 16q2 22 2 39q0 59 -34 59q-13 0 -32 -25.5t-21 -25.5q-24 0 -24 60q0 34 28.5 70.5t60.5 36.5q38 0 62 -31.5t24 -70.5q0 -65 -9 -90q58 32 80 64q-48 44 -48 108q0 63 33 119 q40 66 96 66q89 0 89 -114q0 -67 -30 -128q12 -12 52 -23zM305 1415q19 28 19 57q0 58 -41 58q-32 0 -32 -51q0 -18 18 -38.5t36 -25.5z" />
<glyph unicode="&#xe825;" d="M487 1335q0 -57 -30 -107q-35 -56 -89 -56q-43 0 -66 44q-37 -80 -99 -80q-41 0 -64 39q-20 33 -20 77q0 112 45 112q4 0 19 -48t45 -48q29 0 54 57.5t36 57.5q6 0 19 -43.5t29 -43.5q32 0 60.5 51.5t30.5 51.5q30 0 30 -64z" />
<glyph unicode="&#xe826;" d="M336 -313l-21 -105l-363 -110l16 103z" />
<glyph unicode="&#xe827;" d="M328 -553l-21 -105l-361 -110l15 103zM328 -366l-21 -105l-361 -110l15 103z" />
<glyph unicode="&#xe828;" d="M502 1357q0 -57 -30 -107q-35 -56 -89 -56q-43 0 -66 44q-37 -80 -99 -80q-41 0 -64 39q-20 33 -20 77q0 112 45 112q4 0 19 -48t45 -48q29 0 54 57.5t36 57.5q6 0 19 -43.5t29 -43.5q32 0 60.5 51.5t30.5 51.5q30 0 30 -64zM487 1667l-21 -103l-361 -112l14 103z" />
<glyph unicode="&#xe829;" d="M502 1357q0 -57 -30 -107q-35 -56 -89 -56q-43 0 -66 44q-37 -80 -99 -80q-41 0 -64 39q-20 33 -20 77q0 112 45 112q4 0 19 -48t45 -48q29 0 54 57.5t36 57.5q6 0 19 -43.5t29 -43.5q32 0 60.5 51.5t30.5 51.5q30 0 30 -64zM491 1692q0 -41 -46 -112l-73 30 q-28 -35 -89 -74q-76 -50 -133 -50q-12 0 -27 76q128 34 176 102q-48 44 -48 108q0 63 34 119q40 66 96 66q89 0 89 -114q0 -68 -30 -128q12 -12 51 -23zM379 1751q20 28 20 56q0 59 -41 59q-32 0 -32 -51q0 -18 17.5 -38.5t35.5 -25.5z" />
<glyph unicode="&#xe82a;" d="M502 1357q0 -57 -30 -107q-35 -56 -89 -56q-43 0 -66 44q-37 -80 -99 -80q-41 0 -64 39q-20 33 -20 77q0 112 45 112q4 0 19 -48t45 -48q29 0 54 57.5t36 57.5q6 0 19 -43.5t29 -43.5q32 0 60.5 51.5t30.5 51.5q30 0 30 -64zM487 1691l-22 -103l-360 -112l14 103z M487 1878l-22 -103l-360 -112l14 103z" />
<glyph unicode="&#xe82b;" d="M521 1340q0 -57 -30 -107q-35 -56 -89 -56q-43 0 -66 44q-37 -80 -99 -80q-41 0 -64 39q-20 33 -20 77q0 112 45 112q4 0 19 -48t45 -48q29 0 54 57.5t36 57.5q6 0 19 -43.5t29 -43.5q32 0 60.5 51.5t30.5 51.5q30 0 30 -64zM519 1666q0 -41 -47 -112l-73 30 q-28 -35 -88 -74q-76 -50 -134 -50q-12 0 -26 76q7 2 39 16q2 22 2 39q0 59 -34 59q-13 0 -32 -25.5t-21 -25.5q-24 0 -24 60q0 34 28.5 70.5t60.5 36.5q38 0 62 -31.5t24 -70.5q0 -65 -9 -90q58 32 80 64q-48 44 -48 108q0 63 33 119q40 66 96 66q89 0 89 -114 q0 -67 -30 -128q12 -12 52 -23zM407 1725q19 28 19 57q0 58 -41 58q-32 0 -32 -51q0 -18 18 -38.5t36 -25.5z" />
<glyph unicode="&#xe82c;" d="M502 1591q0 -57 -30 -107q-35 -56 -89 -56q-43 0 -66 44q-37 -80 -99 -80q-41 0 -64 39q-20 33 -20 77q0 112 45 112q4 0 19 -48t45 -48q29 0 54 57.5t36 57.5q6 0 19 -43.5t29 -43.5q32 0 60.5 51.5t30.5 51.5q30 0 30 -64zM508 1367l-21 -105l-363 -110l16 103z" />
<glyph unicode="&#xe82d;" d="M502 1796q0 -57 -30 -107q-35 -56 -89 -56q-43 0 -66 44q-37 -80 -99 -80q-41 0 -64 39q-20 33 -20 77q0 112 45 112q4 0 19 -48t45 -48q29 0 54 57.5t36 57.5q6 0 19 -43.5t29 -43.5q32 0 60.5 51.5t30.5 51.5q30 0 30 -64zM510 1370l-21 -105l-361 -110l15 103z M510 1557l-21 -105l-361 -110l15 103z" />
</font>
</defs>
</svg>
